<?xml version="1.0" standalone="no"?>
<!DOCTYPE svg PUBLIC "-//W3C//DTD SVG 1.1//EN" "http://www.w3.org/Graphics/SVG/1.1/DTD/svg11.dtd" >
<svg>
<metadata>
Created by FontForge 20090622 at Thu Jul  9 13:19:55 2015
 By deploy user
Digitized data copyright &#194;&#169; 1997 The Monotype Corporation, Inc. All rights reserved. Gill Sans&#194;&#174; is a trademark of The Monotype Corporation, Inc. which may be registered in certain jurisdictions.
</metadata>
<defs>
<font id="GillSansMT-Bold" horiz-adv-x="682" >
  <font-face 
    font-family="Gill Sans MT"
    font-weight="700"
    font-stretch="normal"
    units-per-em="2048"
    panose-1="2 11 8 2 2 1 4 2 2 3"
    ascent="1638"
    descent="-410"
    x-height="944"
    cap-height="1397"
    bbox="-362 -654 2390 1924"
    underline-thickness="102"
    underline-position="-103"
    unicode-range="U+0020-U+FB02"
  />
<missing-glyph horiz-adv-x="2048" 
d="M256 0v1536h1536v-1536h-1536zM384 128h1280v1280h-1280v-1280z" />
    <glyph glyph-name=".notdef" horiz-adv-x="2048" 
d="M256 0v1536h1536v-1536h-1536zM384 128h1280v1280h-1280v-1280z" />
    <glyph glyph-name=".null" horiz-adv-x="0" 
 />
    <glyph glyph-name="nonmarkingreturn" horiz-adv-x="569" 
 />
    <glyph glyph-name="space" unicode=" " horiz-adv-x="569" 
 />
    <glyph glyph-name="exclam" unicode="!" horiz-adv-x="555" 
d="M449 1194q0 -140 -47.5 -414.5t-65.5 -316t-57 -41.5q-42 0 -57 34.5t-65.5 294.5t-50.5 443q0 221 173 221q170 0 170 -221zM100 160q0 73 52.5 125.5t126.5 52.5q73 0 125.5 -52.5t52.5 -125.5q0 -74 -52.5 -126t-125.5 -52q-74 0 -126.5 52t-52.5 126z" />
    <glyph glyph-name="quotedbl" unicode="&#x22;" horiz-adv-x="981" 
d="M823 944h-178l-49 275v247h276v-247zM109 1466h276v-247l-49 -275h-178l-49 275v247z" />
    <glyph glyph-name="numbersign" unicode="#" horiz-adv-x="1196" 
d="M-12 1026h297l77 370h232l-78 -370h315l78 370h228l-78 -370h151v-224h-196l-56 -268h252v-223h-301l-78 -371h-227l76 371h-313l-76 -371h-234l78 371h-147v223h194l56 268h-250v224zM469 802l-55 -268h313l55 268h-313z" />
    <glyph glyph-name="dollar" unicode="$" horiz-adv-x="1110" 
d="M956 1237v-252q-147 112 -319 135v-332q188 -58 289.5 -171.5t101.5 -243.5q0 -150 -101.5 -254t-289.5 -137v-226h-172v226q-185 29 -359 141v242q187 -143 359 -172v393q-373 87 -373 391q0 140 100.5 242t272.5 122v74h172v-74q148 -6 319 -104zM465 850v270
q-137 -34 -137 -131q0 -95 137 -139zM637 532v-335q158 36 158 161q0 119 -158 174z" />
    <glyph glyph-name="percent" unicode="%" horiz-adv-x="1473" 
d="M379 1415q136 0 233 -96t97 -234q0 -135 -97.5 -232t-232.5 -97q-136 0 -233 97t-97 232q0 138 96.5 234t233.5 96zM379 932q61 0 103 44.5t42 108.5q0 63 -43 108.5t-102 45.5q-62 0 -104 -44t-42 -110q0 -61 43.5 -107t102.5 -46zM1307 1415l-977 -1431h-170l983 1431
h164zM1092 641q136 0 232.5 -96.5t96.5 -233.5q0 -135 -97 -232t-232 -97q-136 0 -233 97t-97 232q0 137 96.5 233.5t233.5 96.5zM1092 158q61 0 103 44.5t42 108.5q0 63 -43 108.5t-102 45.5q-62 0 -104 -44t-42 -110q0 -61 43.5 -107t102.5 -46z" />
    <glyph glyph-name="ampersand" unicode="&#x26;" horiz-adv-x="1536" 
d="M1188 725h299q-119 -276 -281 -418l281 -307h-424l-102 111q-203 -129 -439 -129q-190 0 -316 105.5t-126 262.5q0 236 313 395q-127 174 -127 310q0 155 121 257.5t307 102.5q178 0 291 -93.5t113 -238.5q0 -204 -260 -358l190 -219q90 90 160 219zM686 891
q139 81 139 176q0 51 -36 84t-93 33q-56 0 -92.5 -30.5t-36.5 -76.5q0 -80 119 -186zM799 291l-248 274q-143 -92 -143 -188q0 -67 52 -115.5t124 -48.5q101 0 215 78z" />
    <glyph glyph-name="quotesingle" unicode="'" horiz-adv-x="492" 
d="M336 944h-178l-49 275v247h276v-247z" />
    <glyph glyph-name="parenleft" unicode="(" horiz-adv-x="788" 
d="M776 1415q-364 -401 -364 -942q0 -535 364 -944h-211q-222 178 -347.5 432t-125.5 512q0 257 126.5 512.5t346.5 429.5h211z" />
    <glyph glyph-name="parenright" unicode=")" horiz-adv-x="788" 
d="M12 -471q365 411 365 944q0 541 -365 942h211q220 -174 346.5 -429.5t126.5 -512.5t-125 -510t-348 -434h-211z" />
    <glyph glyph-name="asterisk" unicode="*" horiz-adv-x="961" 
d="M607 616q6 -18 6 -32q0 -43 -59 -43h-125q-64 0 -64 41q0 15 6 34l91 291l-25 23l-203 -209q-45 -46 -66 -46q-18 0 -36 34l-57 108q-13 25 -13 44q0 37 43 46l312 68v4l-312 70q-44 11 -44 47q0 17 9 34l62 117q19 36 35 36q20 0 67 -48l203 -209l25 23l-91 290
q-6 19 -6 33q0 43 64 43h119q65 0 65 -42q0 -14 -6 -34l-90 -290l24 -23l203 209q47 47 64 47q16 0 39 -41l51 -92q19 -36 19 -58q0 -33 -44 -42l-311 -70v-4l311 -68q44 -9 44 -46q0 -21 -15 -48l-53 -96q-25 -44 -42 -44q-16 0 -46 32l-220 225l-24 -23z" />
    <glyph glyph-name="plus" unicode="+" horiz-adv-x="1196" 
d="M86 592v262h381v381h262v-381h381v-262h-381v-381h-262v381h-381z" />
    <glyph glyph-name="comma" unicode="," horiz-adv-x="555" 
d="M102 -346v63q95 91 95 231q0 17 -2 34q-105 40 -105 149q0 70 48 116t120 46q90 0 147.5 -65.5t57.5 -168.5q0 -148 -101.5 -267t-259.5 -138z" />
    <glyph glyph-name="hyphen" unicode="-" 
d="M608 610v-272h-534v272h534z" />
    <glyph glyph-name="period" unicode="." horiz-adv-x="555" 
d="M98 160q0 73 52.5 125.5t125.5 52.5q74 0 126.5 -52.5t52.5 -125.5q0 -74 -52.5 -126t-126.5 -52q-73 0 -125.5 52t-52.5 126z" />
    <glyph glyph-name="slash" unicode="/" horiz-adv-x="575" 
d="M0 -18l346 1433h211l-350 -1433h-207z" />
    <glyph glyph-name="zero" unicode="0" horiz-adv-x="1130" 
d="M567 1415q222 0 346.5 -191t124.5 -519q0 -341 -121 -532t-346 -191q-228 0 -354.5 190t-126.5 526q0 340 128.5 528.5t348.5 188.5zM567 244q84 0 122 101.5t38 381.5q0 233 -37.5 329.5t-124.5 96.5q-85 0 -124.5 -94.5t-39.5 -374.5q0 -235 39.5 -337.5t126.5 -102.5z
" />
    <glyph glyph-name="one" unicode="1" horiz-adv-x="1130" 
d="M715 1397v-1397h-309v1397h309z" />
    <glyph glyph-name="two" unicode="2" horiz-adv-x="1130" 
d="M1034 285v-285h-923v39q127 155 290.5 392.5t206.5 337.5t43 194q0 82 -54.5 141t-131.5 59q-153 0 -336 -174v293q205 133 391 133q206 0 324.5 -106t118.5 -291q0 -253 -379 -733h450z" />
    <glyph glyph-name="three" unicode="3" horiz-adv-x="1130" 
d="M416 602v246q87 0 139.5 49t52.5 117q0 70 -56 116t-142 46q-117 0 -256 -68v246q139 61 319 61q199 0 323 -95.5t124 -246.5q0 -209 -207 -323q245 -96 245 -359q0 -186 -135 -297.5t-362 -111.5q-185 0 -342 79v271q158 -111 295 -111q97 0 158 51.5t61 133.5
t-58.5 137t-158.5 59z" />
    <glyph glyph-name="four" unicode="4" horiz-adv-x="1130" 
d="M938 1415v-848h94v-223h-94v-344h-309v344h-545v223l657 848h197zM330 567h299v381z" />
    <glyph glyph-name="five" unicode="5" horiz-adv-x="1130" 
d="M928 1397v-281h-447v-260q224 15 359 -111t135 -319q0 -202 -137.5 -323t-368.5 -121q-203 0 -338 75v254q161 -90 297 -90q96 0 158.5 55.5t62.5 139.5q0 93 -76 147t-211 54q-74 0 -159 -17v797h725z" />
    <glyph glyph-name="six" unicode="6" horiz-adv-x="1130" 
d="M866 1415l-323 -528q46 12 93 12q157 0 268.5 -121t111.5 -319q0 -205 -132 -341t-331 -136q-205 0 -334 137.5t-129 357.5q0 239 191 547l241 391h344zM559 244q72 0 115 55.5t43 151.5q0 94 -44 151t-116 57t-114 -57t-42 -156q0 -96 42 -149t116 -53z" />
    <glyph glyph-name="seven" unicode="7" horiz-adv-x="1130" 
d="M272 88l375 1030h-516v279h924v-17l-504 -1398z" />
    <glyph glyph-name="eight" unicode="8" horiz-adv-x="1130" 
d="M309 737q-172 108 -172 299q0 170 117 274.5t307 104.5q200 0 317 -111.5t117 -269.5q0 -195 -170 -297q209 -108 209 -338q0 -188 -128.5 -302.5t-342.5 -114.5q-206 0 -335.5 116t-129.5 299q0 243 211 340zM569 823q60 0 93.5 53.5t33.5 147.5q0 186 -131 186
q-59 0 -94 -50.5t-35 -139.5q0 -91 36 -144t97 -53zM569 186q69 0 111.5 58.5t42.5 156.5q0 103 -42.5 163.5t-113.5 60.5t-114 -58.5t-43 -156.5q0 -102 44 -163t115 -61z" />
    <glyph glyph-name="nine" unicode="9" horiz-adv-x="1130" 
d="M256 -18l322 524q-48 -13 -95 -13q-156 0 -268.5 128.5t-112.5 310.5q0 205 134 344t331 139q198 0 329.5 -139t131.5 -348q0 -248 -184 -547l-246 -399h-342zM561 731q67 0 111.5 59t44.5 150q0 99 -42 156t-114 57q-69 0 -114.5 -59.5t-45.5 -151.5q0 -94 44.5 -152.5
t115.5 -58.5z" />
    <glyph glyph-name="colon" unicode=":" horiz-adv-x="555" 
d="M98 766q0 73 52.5 125.5t125.5 52.5q74 0 126.5 -52.5t52.5 -125.5t-52.5 -125.5t-126.5 -52.5q-73 0 -125.5 52.5t-52.5 125.5zM98 160q0 73 52.5 125.5t125.5 52.5q74 0 126.5 -52.5t52.5 -125.5q0 -74 -52.5 -126t-126.5 -52q-73 0 -125.5 52t-52.5 126z" />
    <glyph glyph-name="semicolon" unicode=";" horiz-adv-x="555" 
d="M98 766q0 73 52.5 125.5t125.5 52.5q74 0 126.5 -52.5t52.5 -125.5t-52.5 -125.5t-126.5 -52.5q-73 0 -125.5 52.5t-52.5 125.5zM102 -346v63q95 91 95 231q0 17 -2 34q-105 40 -105 149q0 70 48 116t120 46q90 0 147.5 -65.5t57.5 -168.5q0 -148 -101.5 -267
t-259.5 -138z" />
    <glyph glyph-name="less" unicode="&#x3c;" horiz-adv-x="1196" 
d="M96 604v246l1006 436v-280l-703 -279l703 -278v-281z" />
    <glyph glyph-name="equal" unicode="=" horiz-adv-x="1196" 
d="M86 815v262h1024v-262h-1024zM86 369v262h1024v-262h-1024z" />
    <glyph glyph-name="greater" unicode="&#x3e;" horiz-adv-x="1196" 
d="M1100 604l-1006 -436v281l703 278l-703 279v280l1006 -436v-246z" />
    <glyph glyph-name="question" unicode="?" horiz-adv-x="768" 
d="M51 1122l51 252q118 41 238 41q156 0 247 -78t91 -209q0 -75 -28 -155.5t-126 -203t-120.5 -181t-22.5 -111.5v-24q0 -22 -12.5 -27.5t-51.5 -5.5q-37 0 -52.5 16t-36.5 87t-21 126q0 112 94 273q66 112 66 168q0 104 -121 104q-91 0 -176 -72h-19zM145 160
q0 73 52.5 125.5t126.5 52.5q73 0 125.5 -52.5t52.5 -125.5q0 -74 -52.5 -126t-125.5 -52q-74 0 -126.5 52t-52.5 126z" />
    <glyph glyph-name="at" unicode="@" horiz-adv-x="2005" 
d="M1778 18h213q-110 -219 -337 -333.5t-542 -114.5q-445 0 -748 238t-303 663q0 422 270.5 721t755.5 299q378 0 614 -212.5t236 -551.5q0 -288 -190.5 -507.5t-470.5 -219.5q-155 0 -182 115q-115 -115 -271 -115q-169 0 -277 117t-108 303q0 250 151.5 456.5t385.5 206.5
q181 0 268 -135l25 111h264l-160 -758q-5 -26 -5 -45q0 -51 38 -51q94 0 223 160.5t129 365.5q0 247 -178 413.5t-508 166.5q-393 0 -611 -244t-218 -594q0 -338 234.5 -530.5t610.5 -192.5q479 0 691 268zM1001 903q-135 0 -220 -148t-85 -339q0 -106 50 -170t131 -64
q142 0 226.5 163t84.5 325q0 107 -51 170t-136 63z" />
    <glyph glyph-name="A" unicode="A" horiz-adv-x="1599" 
d="M973 1397l620 -1397h-374l-115 276h-625l-104 -276h-369l563 1397h404zM1001 520l-225 543l-205 -543h430z" />
    <glyph glyph-name="B" unicode="B" horiz-adv-x="1430" 
d="M156 1397h604q216 0 339.5 -104t123.5 -246q0 -182 -191 -279q144 -38 220.5 -134t76.5 -224q0 -182 -125 -296t-368 -114h-680v1397zM504 1141v-299h182q84 0 131 43t47 108q0 64 -47 106t-131 42h-182zM504 586v-330h196q139 0 200 38.5t61 133.5q0 73 -58 115.5
t-155 42.5h-244z" />
    <glyph glyph-name="C" unicode="C" horiz-adv-x="1579" 
d="M1458 426v-305q-262 -139 -549 -139q-372 0 -592.5 205.5t-220.5 506.5t232.5 511t607.5 210q299 0 506 -123v-311q-254 143 -481 143q-223 0 -364.5 -119.5t-141.5 -304.5q0 -186 139.5 -307t357.5 -121q108 0 208 28.5t298 125.5z" />
    <glyph glyph-name="D" unicode="D" horiz-adv-x="1642" 
d="M154 1397h616q357 0 564.5 -195.5t207.5 -505.5q0 -325 -210.5 -510.5t-600.5 -185.5h-577v1397zM502 1141v-885h227q221 0 338 121.5t117 320.5q0 206 -118.5 324.5t-340.5 118.5h-223z" />
    <glyph glyph-name="E" unicode="E" horiz-adv-x="1300" 
d="M1190 256v-256h-1030v1397h1016v-256h-668v-293h637v-256h-637v-336h682z" />
    <glyph glyph-name="F" unicode="F" horiz-adv-x="1237" 
d="M1118 1397v-256h-614v-312h614v-256h-614v-573h-348v1397h962z" />
    <glyph glyph-name="G" unicode="G" horiz-adv-x="1665" 
d="M1489 1300v-305q-267 129 -522 129q-246 0 -379 -124t-133 -316q0 -184 133 -298t350 -114q115 0 231 50v163h-202v256h551v-571q-83 -83 -252.5 -135.5t-335.5 -52.5q-365 0 -599.5 201.5t-234.5 512.5q0 318 234.5 518.5t607.5 200.5q308 0 551 -115z" />
    <glyph glyph-name="H" unicode="H" horiz-adv-x="1706" 
d="M1550 1397v-1397h-348v565h-696v-565h-348v1397h348v-561h696v561h348z" />
    <glyph glyph-name="I" unicode="I" 
d="M516 1397v-1397h-348v1397h348z" />
    <glyph glyph-name="J" unicode="J" 
d="M530 1397v-1268q0 -537 -494 -537q-47 0 -102 5v274q28 -5 53 -5q195 0 195 257v1274h348z" />
    <glyph glyph-name="K" unicode="K" horiz-adv-x="1473" 
d="M1329 1397l-455 -656l617 -741h-436l-553 655v-655h-348v1397h348v-629l444 629h383z" />
    <glyph glyph-name="L" unicode="L" horiz-adv-x="1260" 
d="M1221 256v-256h-1065v1397h348v-1141h717z" />
    <glyph glyph-name="M" unicode="M" horiz-adv-x="1812" 
d="M907 879l449 518h303v-1397h-348v872l-377 -438h-53l-377 438v-872h-348v1397h303z" />
    <glyph glyph-name="N" unicode="N" horiz-adv-x="1729" 
d="M1571 1397v-1397h-293l-772 895v-895h-348v1397h319l746 -854v854h348z" />
    <glyph glyph-name="O" unicode="O" horiz-adv-x="1792" 
d="M897 1415q357 0 578 -215.5t221 -501.5q0 -290 -224 -503t-575 -213q-355 0 -578 212t-223 504q0 287 221.5 502t579.5 215zM897 272q198 0 319 117.5t121 308.5q0 192 -121 309t-319 117q-199 0 -320.5 -117t-121.5 -309q0 -191 121.5 -308.5t320.5 -117.5z" />
    <glyph glyph-name="P" unicode="P" horiz-adv-x="1343" 
d="M170 1397h623q212 0 337 -123t125 -291q0 -174 -123.5 -298t-336.5 -124h-277v-561h-348v1397zM518 1141v-324h162q217 0 217 162q0 91 -58 126.5t-198 35.5h-123z" />
    <glyph glyph-name="Q" unicode="Q" horiz-adv-x="1792" 
d="M1694 -61l22 -29l-272 -232q-112 8 -232 43q-113 33 -229 88q-110 53 -218 124q-80 53 -190 93q-91 33 -175 93q-87 62 -153 146q-71 89 -109 192q-42 113 -42 233q0 290 227.5 507.5t577.5 217.5q355 0 576 -217t221 -496q0 -226 -140.5 -415t-379.5 -264
q182 -104 380 -104q77 0 136 20zM897 1124q-199 0 -320.5 -118.5t-121.5 -311.5q0 -192 121.5 -310t320.5 -118q196 0 319 116.5t123 311.5q0 197 -124.5 313.5t-317.5 116.5z" />
    <glyph glyph-name="R" unicode="R" horiz-adv-x="1386" 
d="M156 1397h624q203 0 330 -117.5t127 -284.5q0 -231 -240 -342q106 -47 200.5 -257l182.5 -396h-383q-34 69 -118.5 263t-145 249t-129.5 55h-100v-567h-348v1397zM504 1141v-318h184q88 0 139.5 41.5t51.5 118.5q0 158 -199 158h-176z" />
    <glyph glyph-name="S" unicode="S" horiz-adv-x="1237" 
d="M1104 1307v-273q-278 125 -443 125q-94 0 -149.5 -31.5t-55.5 -83.5q0 -40 40 -76t195 -93t248 -106t160.5 -138t67.5 -225q0 -194 -147.5 -309t-388.5 -115q-260 0 -504 135v301q140 -94 248 -137t229 -43q205 0 205 129q0 44 -41 83t-197.5 95t-248 104t-158 137
t-66.5 228q0 180 145 290.5t388 110.5q224 0 473 -108z" />
    <glyph glyph-name="T" unicode="T" horiz-adv-x="1473" 
d="M1417 1397v-256h-506v-1141h-348v1141h-506v256h1360z" />
    <glyph glyph-name="U" unicode="U" horiz-adv-x="1686" 
d="M1192 1397h348v-793q0 -306 -181 -464t-517 -158q-332 0 -515.5 160t-183.5 460v795h349v-803q0 -146 95.5 -234t250.5 -88q161 0 257.5 90t96.5 256v779z" />
    <glyph glyph-name="V" unicode="V" horiz-adv-x="1473" 
d="M1473 1397l-646 -1415h-151l-676 1415h379l369 -797l350 797h375z" />
    <glyph glyph-name="W" unicode="W" horiz-adv-x="2390" 
d="M1194 893l-432 -911h-150l-614 1415h369l329 -772l359 772h280l359 -772l327 772h369l-612 -1415h-150z" />
    <glyph glyph-name="X" unicode="X" horiz-adv-x="1665" 
d="M1595 1397l-546 -674l606 -723h-451l-379 461l-372 -461h-445l592 723l-559 674h451l333 -412l328 412h442z" />
    <glyph glyph-name="Y" unicode="Y" horiz-adv-x="1450" 
d="M551 0v653l-551 744h422l303 -439l305 439h420l-551 -744v-653h-348z" />
    <glyph glyph-name="Z" unicode="Z" horiz-adv-x="1430" 
d="M1364 1397l-762 -1141h762v-256h-1356l768 1141h-715v256h1303z" />
    <glyph glyph-name="bracketleft" unicode="[" horiz-adv-x="897" 
d="M858 1397v-223h-389v-1403h389v-224h-686v1850h686z" />
    <glyph glyph-name="backslash" unicode="\" horiz-adv-x="575" 
d="M571 -18h-206l-351 1433h211z" />
    <glyph glyph-name="bracketright" unicode="]" horiz-adv-x="897" 
d="M39 -453v224h389v1403h-389v223h686v-1850h-686z" />
    <glyph glyph-name="asciicircum" unicode="^" horiz-adv-x="1196" 
d="M115 598l377 799h221l366 -799h-284l-197 489l-197 -489h-286z" />
    <glyph glyph-name="underscore" unicode="_" horiz-adv-x="1024" 
d="M-12 -154h1048v-102h-1048v102z" />
    <glyph glyph-name="grave" unicode="`" 
d="M16 1384h338l152 -299h-152z" />
    <glyph glyph-name="a" unicode="a" horiz-adv-x="1087" 
d="M1087 233v-165q-148 -86 -278 -86q-140 0 -166 106q-155 -106 -311 -106q-110 0 -187 69.5t-77 161.5q0 123 79.5 198.5t481.5 194.5q10 158 -164 158q-189 0 -348 -158v242q186 115 409 115q400 0 400 -287v-430q0 -66 49 -66q37 0 112 53zM629 229v228
q-149 -52 -204.5 -93.5t-55.5 -105.5q0 -41 28 -70.5t68 -29.5q84 0 164 71z" />
    <glyph glyph-name="b" unicode="b" horiz-adv-x="1194" 
d="M416 1397v-506q117 72 243 72q204 0 332.5 -136t128.5 -352q0 -217 -123.5 -355t-316.5 -138q-140 0 -264 90v-72h-297v1397h297zM416 698v-438q90 -80 176 -80q106 0 166.5 79.5t60.5 219.5q0 136 -63.5 210.5t-167.5 74.5q-81 0 -172 -66z" />
    <glyph glyph-name="c" unicode="c" horiz-adv-x="1024" 
d="M948 258v-213q-174 -63 -319 -63q-249 0 -398 133.5t-149 353.5q0 215 150.5 354.5t383.5 139.5q150 0 318 -62v-221q-123 63 -242 63q-133 0 -213 -74t-80 -198q0 -125 78 -201.5t205 -76.5q94 0 266 65z" />
    <glyph glyph-name="d" unicode="d" horiz-adv-x="1194" 
d="M1073 1397v-1397h-297v76q-114 -94 -262 -94q-189 0 -315.5 140t-126.5 351q0 216 128.5 353t329.5 137q125 0 246 -60v494h297zM776 258v451q-81 55 -166 55q-112 0 -174.5 -78t-62.5 -219q0 -130 62 -208.5t165 -78.5q91 0 176 78z" />
    <glyph glyph-name="e" unicode="e" horiz-adv-x="1130" 
d="M1044 293v-187q-170 -124 -421 -124q-249 0 -398 133.5t-149 353.5q0 216 140 355t357 139q218 0 357.5 -146.5t130.5 -392.5h-678q9 -128 91 -197t220 -69q167 0 350 135zM389 580h410q-24 206 -205 206q-183 0 -205 -206z" />
    <glyph glyph-name="f" unicode="f" horiz-adv-x="618" 
d="M463 944h135v-203h-135v-741h-297v741h-135v203h135v47q0 199 112 311.5t302 112.5q46 0 180 -18v-240q-93 12 -133 12q-164 0 -164 -165v-60z" />
    <glyph glyph-name="g" unicode="g" horiz-adv-x="1110" 
d="M1085 944v-199h-135q47 -80 47 -157q0 -110 -82 -203t-242.5 -110.5t-182 -33t-21.5 -40.5t28 -40.5t220.5 -32t268 -101t75.5 -181.5q0 -155 -128.5 -236t-371.5 -81q-248 0 -376 75t-128 199q0 172 252 240q-114 34 -114 123q0 104 172 143q-115 20 -190 100t-75 191
q0 136 108 240t314 104h561zM551 768q-73 0 -122.5 -50t-49.5 -122q0 -69 51 -119.5t121 -50.5t120 53t50 127q0 67 -48.5 114.5t-121.5 47.5zM575 -295q95 0 154 35t59 84q0 104 -231 104q-105 0 -165 -30.5t-60 -81.5q0 -111 243 -111z" />
    <glyph glyph-name="h" unicode="h" horiz-adv-x="1194" 
d="M424 1397v-592h4q124 158 299 158q151 0 248.5 -95.5t97.5 -265.5v-602h-297v539q0 206 -153 206q-101 0 -199 -143v-602h-297v1397h297z" />
    <glyph glyph-name="i" unicode="i" horiz-adv-x="555" 
d="M113 1251q0 68 48 116t115 48q68 0 116 -48t48 -116q0 -67 -48 -115.5t-116 -48.5q-67 0 -115 48.5t-48 115.5zM426 944v-944h-297v944h297z" />
    <glyph glyph-name="j" unicode="j" horiz-adv-x="555" 
d="M119 1251q0 68 48 116t116 48q67 0 115 -48t48 -116q0 -67 -48 -115.5t-115 -48.5q-68 0 -116 48.5t-48 115.5zM432 944v-971q0 -194 -96.5 -310t-259.5 -134l-94 268q153 23 153 248v899h297z" />
    <glyph glyph-name="k" unicode="k" horiz-adv-x="1130" 
d="M426 1397v-920h4l367 467h348l-369 -467l385 -477h-364l-367 465h-4v-465h-297v1397h297z" />
    <glyph glyph-name="l" unicode="l" horiz-adv-x="555" 
d="M426 1397v-1397h-297v1397h297z" />
    <glyph glyph-name="m" unicode="m" horiz-adv-x="1962" 
d="M426 944v-121q151 140 328 140q243 0 340 -201q171 201 372 201q163 0 266 -99t103 -258v-606h-297v553q0 100 -46 155.5t-128 55.5q-130 0 -234 -160v-604h-296v559q0 99 -49.5 152t-131.5 53q-117 0 -227 -131v-633h-297v944h297z" />
    <glyph glyph-name="n" unicode="n" horiz-adv-x="1194" 
d="M420 944v-135q131 154 307 154q147 0 245.5 -94t98.5 -269v-600h-297v575q0 189 -147 189q-105 0 -207 -156v-608h-297v944h297z" />
    <glyph glyph-name="o" unicode="o" horiz-adv-x="1217" 
d="M610 963q222 0 376.5 -130t154.5 -362q0 -233 -157 -361t-374 -128q-235 0 -384.5 136.5t-149.5 354.5q0 222 152.5 356t381.5 134zM610 158q213 0 213 321q0 307 -213 307q-102 0 -159.5 -81t-57.5 -232q0 -315 217 -315z" />
    <glyph glyph-name="p" unicode="p" horiz-adv-x="1194" 
d="M414 944v-82q119 101 270 101q184 0 311 -139t127 -341q0 -227 -127.5 -364t-337.5 -137q-130 0 -243 65v-518h-297v1415h297zM414 676v-434q84 -62 172 -62q108 0 171.5 77.5t63.5 209.5q0 135 -58.5 210t-164.5 75q-89 0 -184 -76z" />
    <glyph glyph-name="q" unicode="q" horiz-adv-x="1194" 
d="M778 944h297v-1415h-297v518q-110 -65 -243 -65q-208 0 -335.5 138t-127.5 363q0 205 125.5 342.5t312.5 137.5q151 0 268 -101v82zM778 242v434q-92 76 -184 76q-105 0 -163 -74.5t-58 -210.5q0 -133 62.5 -210t170.5 -77q89 0 172 62z" />
    <glyph glyph-name="r" unicode="r" horiz-adv-x="918" 
d="M428 944v-270h4q129 289 301 289q82 0 197 -86l-82 -263q-110 70 -176 70q-103 0 -173.5 -127.5t-70.5 -148.5v-408h-297v944h297z" />
    <glyph glyph-name="s" unicode="s" horiz-adv-x="874" 
d="M772 893v-211q-170 104 -315 104q-107 0 -107 -73q0 -19 22.5 -37.5t172.5 -78t212 -137.5t62 -171q0 -147 -100 -227t-285 -80q-190 0 -338 69v209q182 -80 305 -80q144 0 144 70q0 27 -26.5 51t-178.5 83t-208 130t-56 158q0 129 107.5 210t283.5 81q169 0 305 -70z
" />
    <glyph glyph-name="t" unicode="t" horiz-adv-x="831" 
d="M801 944v-203h-344v-389q0 -70 38.5 -110.5t106.5 -40.5q92 0 199 55v-215q-142 -59 -275 -59q-174 0 -270 90t-96 264v405h-135v58l395 442h37v-297h344z" />
    <glyph glyph-name="u" unicode="u" horiz-adv-x="1194" 
d="M774 0v135q-131 -153 -305 -153q-154 0 -250 95t-96 263v604h297v-584q0 -180 149 -180q84 0 143.5 65.5t59.5 96.5v602h299v-944h-297z" />
    <glyph glyph-name="v" unicode="v" horiz-adv-x="1044" 
d="M440 -18l-436 962h318l200 -520l203 520h315l-434 -962h-166z" />
    <glyph glyph-name="w" unicode="w" horiz-adv-x="1599" 
d="M801 496l-238 -514h-139l-426 962h303l199 -520l211 520h180l209 -520l198 520h304l-424 -962h-142z" />
    <glyph glyph-name="x" unicode="x" horiz-adv-x="1130" 
d="M1096 944l-373 -461l401 -483h-344l-223 293l-215 -293h-334l385 483l-385 461h346l203 -272l193 272h346z" />
    <glyph glyph-name="y" unicode="y" horiz-adv-x="1044" 
d="M1042 944l-632 -1397h-316l277 607l-369 790h317l199 -485l213 485h311z" />
    <glyph glyph-name="z" unicode="z" horiz-adv-x="1067" 
d="M86 944h922l-484 -741h484v-203h-969l485 741h-438v203z" />
    <glyph glyph-name="braceleft" unicode="{" horiz-adv-x="788" 
d="M59 643q111 0 165.5 67.5t54.5 237.5v162q0 193 88.5 283t285.5 90h90v-240h-12q-135 0 -164.5 -34.5t-29.5 -192.5q0 -202 -30 -305.5t-145 -184.5q115 -80 145 -183.5t30 -305.5q0 -158 29.5 -192.5t164.5 -34.5h12v-240h-90q-197 0 -285.5 90t-88.5 283v161
q0 171 -54.5 238t-165.5 68v233z" />
    <glyph glyph-name="bar" unicode="|" horiz-adv-x="575" 
d="M176 -453v1850h223v-1850h-223z" />
    <glyph glyph-name="braceright" unicode="}" horiz-adv-x="788" 
d="M729 410q-111 -1 -165 -68t-54 -238v-161q0 -193 -88.5 -283t-286.5 -90h-90v240h12q136 0 165.5 34.5t29.5 192.5q0 202 30 305.5t144 183.5q-114 81 -144 184.5t-30 305.5q0 158 -29.5 192.5t-165.5 34.5h-12v240h90q198 0 286.5 -90t88.5 -283v-162q0 -170 54 -237.5
t165 -67.5v-233z" />
    <glyph glyph-name="asciitilde" unicode="~" horiz-adv-x="1196" 
d="M33 358v269q177 147 327 147q91 0 259 -80t243 -80q125 0 299 152v-266q-65 -64 -157 -106t-166 -42q-89 0 -262 81t-232 81q-128 0 -311 -156z" />
    <glyph glyph-name="Adieresis" unicode="&#xc4;" horiz-adv-x="1599" 
d="M973 1397l620 -1397h-374l-115 276h-625l-104 -276h-369l563 1397h404zM1001 520l-225 543l-205 -543h430zM1038 1858q69 0 116.5 -47.5t47.5 -115.5q0 -69 -47 -117t-117 -48q-68 0 -115.5 48t-47.5 117q0 68 47.5 115.5t115.5 47.5zM561 1858q69 1 116.5 -47t47.5 -116
q0 -69 -47 -117t-117 -48q-68 0 -115.5 48t-47.5 117q0 68 47.5 115.5t115.5 47.5z" />
    <glyph glyph-name="Aring" unicode="&#xc5;" horiz-adv-x="1599" 
d="M973 1397l620 -1397h-374l-115 276h-625l-104 -276h-369l563 1397h26q-33 50 -33 113q0 86 61.5 146.5t147.5 60.5q85 0 146 -61t61 -146q0 -63 -33 -113h28zM771 1620q-47 0 -79 -31.5t-32 -78.5t32.5 -80t78.5 -33q47 0 79.5 33t32.5 80q0 46 -33 78t-79 32zM1001 520
l-225 543l-205 -543h430z" />
    <glyph glyph-name="Ccedilla" unicode="&#xc7;" horiz-adv-x="1579" 
d="M1458 426v-305q-278 -147 -583 -138l-12 -30q127 -46 127 -150q0 -81 -61.5 -125.5t-162.5 -44.5q-99 0 -151 19v104q155 -5 155 64q0 57 -84 57l66 115q-292 39 -474 234t-182 468q0 322 243 521.5t597 199.5q299 0 506 -123v-311q-254 143 -481 143q-216 0 -361 -116
t-145 -308t142.5 -310t354.5 -118q204 0 506 154z" />
    <glyph glyph-name="Eacute" unicode="&#xc9;" horiz-adv-x="1300" 
d="M1190 256v-256h-1030v1397h1016v-256h-668v-293h637v-256h-637v-336h682zM977 1831l-338 -299h-152l152 299h338z" />
    <glyph glyph-name="Ntilde" unicode="&#xd1;" horiz-adv-x="1729" 
d="M1571 1397v-1397h-293l-772 895v-895h-348v1397h319l746 -854v854h348zM1125 1821h139q-21 -309 -239 -309q-63 0 -177 55.5t-153 55.5q-78 0 -92 -107h-135q11 147 76 226t167 79q66 0 174.5 -55t149.5 -55q72 0 90 110z" />
    <glyph glyph-name="Odieresis" unicode="&#xd6;" horiz-adv-x="1792" 
d="M897 1415q357 0 578 -215.5t221 -501.5q0 -290 -224 -503t-575 -213q-355 0 -578 212t-223 504q0 287 221.5 502t579.5 215zM897 272q198 0 319 117.5t121 308.5q0 192 -121 309t-319 117q-199 0 -320.5 -117t-121.5 -309q0 -191 121.5 -308.5t320.5 -117.5zM1134 1858
q69 0 116.5 -47.5t47.5 -115.5q0 -69 -47 -117t-117 -48q-68 0 -115.5 48t-47.5 117q0 68 47.5 115.5t115.5 47.5zM657 1858q69 1 116.5 -47t47.5 -116q0 -69 -47 -117t-117 -48q-68 0 -115.5 48t-47.5 117q0 68 47.5 115.5t115.5 47.5z" />
    <glyph glyph-name="Udieresis" unicode="&#xdc;" horiz-adv-x="1686" 
d="M1192 1397h348v-793q0 -306 -181 -464t-517 -158q-332 0 -515.5 160t-183.5 460v795h349v-803q0 -146 95.5 -234t250.5 -88q161 0 257.5 90t96.5 256v779zM1081 1858q69 0 116.5 -47.5t47.5 -115.5q0 -69 -47 -117t-117 -48q-68 0 -115.5 48t-47.5 117q0 68 47.5 115.5
t115.5 47.5zM604 1858q69 1 116.5 -47t47.5 -116q0 -69 -47 -117t-117 -48q-68 0 -115.5 48t-47.5 117q0 68 47.5 115.5t115.5 47.5z" />
    <glyph glyph-name="aacute" unicode="&#xe1;" horiz-adv-x="1087" 
d="M1087 233v-165q-148 -86 -278 -86q-140 0 -166 106q-155 -106 -311 -106q-110 0 -187 69.5t-77 161.5q0 123 79.5 198.5t481.5 194.5q10 158 -164 158q-189 0 -348 -158v242q186 115 409 115q400 0 400 -287v-430q0 -66 49 -66q37 0 112 53zM629 229v228
q-149 -52 -204.5 -93.5t-55.5 -105.5q0 -41 28 -70.5t68 -29.5q84 0 164 71zM871 1384l-338 -299h-152l152 299h338z" />
    <glyph glyph-name="agrave" unicode="&#xe0;" horiz-adv-x="1087" 
d="M1087 233v-165q-148 -86 -278 -86q-140 0 -166 106q-155 -106 -311 -106q-110 0 -187 69.5t-77 161.5q0 123 79.5 198.5t481.5 194.5q10 158 -164 158q-189 0 -348 -158v242q186 115 409 115q400 0 400 -287v-430q0 -66 49 -66q37 0 112 53zM629 229v228
q-149 -52 -204.5 -93.5t-55.5 -105.5q0 -41 28 -70.5t68 -29.5q84 0 164 71zM219 1384h338l152 -299h-152z" />
    <glyph glyph-name="acircumflex" unicode="&#xe2;" horiz-adv-x="1087" 
d="M1087 233v-165q-148 -86 -278 -86q-140 0 -166 106q-155 -106 -311 -106q-110 0 -187 69.5t-77 161.5q0 123 79.5 198.5t481.5 194.5q10 158 -164 158q-189 0 -348 -158v242q186 115 409 115q400 0 400 -287v-430q0 -66 49 -66q37 0 112 53zM629 229v228
q-149 -52 -204.5 -93.5t-55.5 -105.5q0 -41 28 -70.5t68 -29.5q84 0 164 71zM684 1428l203 -359h-182l-160 179l-164 -179h-180l203 359h280z" />
    <glyph glyph-name="adieresis" unicode="&#xe4;" horiz-adv-x="1087" 
d="M1087 233v-165q-148 -86 -278 -86q-140 0 -166 106q-155 -106 -311 -106q-110 0 -187 69.5t-77 161.5q0 123 79.5 198.5t481.5 194.5q10 158 -164 158q-189 0 -348 -158v242q186 115 409 115q400 0 400 -287v-430q0 -66 49 -66q37 0 112 53zM629 229v228
q-149 -52 -204.5 -93.5t-55.5 -105.5q0 -41 28 -70.5t68 -29.5q84 0 164 71zM782 1411q69 0 116.5 -47.5t47.5 -115.5q0 -69 -47 -117t-117 -48q-68 0 -115.5 48t-47.5 117q0 68 47.5 115.5t115.5 47.5zM305 1411q69 1 116.5 -47t47.5 -116q0 -69 -47 -117t-117 -48
q-68 0 -115.5 48t-47.5 117q0 68 47.5 115.5t115.5 47.5z" />
    <glyph glyph-name="atilde" unicode="&#xe3;" horiz-adv-x="1087" 
d="M1087 233v-165q-148 -86 -278 -86q-140 0 -166 106q-155 -106 -311 -106q-110 0 -187 69.5t-77 161.5q0 123 79.5 198.5t481.5 194.5q10 158 -164 158q-189 0 -348 -158v242q186 115 409 115q400 0 400 -287v-430q0 -66 49 -66q37 0 112 53zM629 229v228
q-149 -52 -204.5 -93.5t-55.5 -105.5q0 -41 28 -70.5t68 -29.5q84 0 164 71zM803 1374h139q-21 -309 -239 -309q-63 0 -177 55.5t-153 55.5q-78 0 -92 -107h-135q11 147 76 226t167 79q66 0 174.5 -55t149.5 -55q72 0 90 110z" />
    <glyph glyph-name="aring" unicode="&#xe5;" horiz-adv-x="1087" 
d="M1087 233v-165q-148 -86 -278 -86q-140 0 -166 106q-155 -106 -311 -106q-110 0 -187 69.5t-77 161.5q0 123 79.5 198.5t481.5 194.5q10 158 -164 158q-189 0 -348 -158v242q186 115 409 115q400 0 400 -287v-430q0 -66 49 -66q37 0 112 53zM629 229v228
q-149 -52 -204.5 -93.5t-55.5 -105.5q0 -41 28 -70.5t68 -29.5q84 0 164 71zM336 1249q0 86 61.5 146.5t147.5 60.5t146.5 -60.5t60.5 -146.5t-61 -147.5t-146 -61.5q-86 0 -147.5 62t-61.5 147zM658 1249q0 46 -33.5 78.5t-79.5 32.5t-78.5 -32.5t-32.5 -78.5t32.5 -79
t78.5 -33t79.5 33t33.5 79z" />
    <glyph glyph-name="ccedilla" unicode="&#xe7;" horiz-adv-x="1024" 
d="M948 258v-213q-170 -63 -340 -63l-12 -29q127 -46 127 -150q0 -77 -59 -123.5t-164 -46.5q-100 0 -152 19v104q156 -5 156 64q0 57 -84 57l67 119q-193 36 -299 162.5t-106 310.5q0 215 150.5 354.5t383.5 139.5q150 0 318 -62v-221q-123 63 -242 63q-133 0 -213 -74
t-80 -198q0 -125 78 -201.5t205 -76.5q94 0 266 65z" />
    <glyph glyph-name="eacute" unicode="&#xe9;" horiz-adv-x="1130" 
d="M1044 293v-187q-170 -124 -421 -124q-249 0 -398 133.5t-149 353.5q0 216 140 355t357 139q218 0 357.5 -146.5t130.5 -392.5h-678q9 -128 91 -197t220 -69q167 0 350 135zM389 580h410q-24 206 -205 206q-183 0 -205 -206zM893 1384l-338 -299h-152l152 299h338z" />
    <glyph glyph-name="egrave" unicode="&#xe8;" horiz-adv-x="1130" 
d="M1044 293v-187q-170 -124 -421 -124q-249 0 -398 133.5t-149 353.5q0 216 140 355t357 139q218 0 357.5 -146.5t130.5 -392.5h-678q9 -128 91 -197t220 -69q167 0 350 135zM389 580h410q-24 206 -205 206q-183 0 -205 -206zM242 1384h338l152 -299h-152z" />
    <glyph glyph-name="ecircumflex" unicode="&#xea;" horiz-adv-x="1130" 
d="M1044 293v-187q-170 -124 -421 -124q-249 0 -398 133.5t-149 353.5q0 216 140 355t357 139q218 0 357.5 -146.5t130.5 -392.5h-678q9 -128 91 -197t220 -69q167 0 350 135zM389 580h410q-24 206 -205 206q-183 0 -205 -206zM706 1428l203 -359h-182l-160 179l-164 -179
h-180l203 359h280z" />
    <glyph glyph-name="edieresis" unicode="&#xeb;" horiz-adv-x="1130" 
d="M1044 293v-187q-170 -124 -421 -124q-249 0 -398 133.5t-149 353.5q0 216 140 355t357 139q218 0 357.5 -146.5t130.5 -392.5h-678q9 -128 91 -197t220 -69q167 0 350 135zM389 580h410q-24 206 -205 206q-183 0 -205 -206zM804 1411q69 0 116.5 -47.5t47.5 -115.5
q0 -69 -47 -117t-117 -48q-68 0 -115.5 48t-47.5 117q0 68 47.5 115.5t115.5 47.5zM327 1411q69 1 116.5 -47t47.5 -116q0 -69 -47 -117t-117 -48q-68 0 -115.5 48t-47.5 117q0 68 47.5 115.5t115.5 47.5z" />
    <glyph glyph-name="iacute" unicode="&#xed;" horiz-adv-x="555" 
d="M426 944v-944h-297v944h297zM604 1384l-338 -299h-152l152 299h338z" />
    <glyph glyph-name="igrave" unicode="&#xec;" horiz-adv-x="555" 
d="M426 944v-944h-297v944h297zM-48 1384h338l152 -299h-152z" />
    <glyph glyph-name="icircumflex" unicode="&#xee;" horiz-adv-x="555" 
d="M426 944v-944h-297v944h297zM417 1428l203 -359h-182l-160 179l-164 -179h-180l203 359h280z" />
    <glyph glyph-name="idieresis" unicode="&#xef;" horiz-adv-x="555" 
d="M426 944v-944h-297v944h297zM516 1411q69 0 116.5 -47.5t47.5 -115.5q0 -69 -47 -117t-117 -48q-68 0 -115.5 48t-47.5 117q0 68 47.5 115.5t115.5 47.5zM39 1411q69 1 116.5 -47t47.5 -116q0 -69 -47 -117t-117 -48q-68 0 -115.5 48t-47.5 117q0 68 47.5 115.5
t115.5 47.5z" />
    <glyph glyph-name="ntilde" unicode="&#xf1;" horiz-adv-x="1194" 
d="M420 944v-135q131 154 307 154q147 0 245.5 -94t98.5 -269v-600h-297v575q0 189 -147 189q-105 0 -207 -156v-608h-297v944h297zM856 1374h139q-21 -309 -239 -309q-63 0 -177 55.5t-153 55.5q-78 0 -92 -107h-135q11 147 76 226t167 79q66 0 174.5 -55t149.5 -55
q72 0 90 110z" />
    <glyph glyph-name="oacute" unicode="&#xf3;" horiz-adv-x="1217" 
d="M610 963q222 0 376.5 -130t154.5 -362q0 -233 -157 -361t-374 -128q-235 0 -384.5 136.5t-149.5 354.5q0 222 152.5 356t381.5 134zM610 158q213 0 213 321q0 307 -213 307q-102 0 -159.5 -81t-57.5 -232q0 -315 217 -315zM936 1384l-338 -299h-152l152 299h338z" />
    <glyph glyph-name="ograve" unicode="&#xf2;" horiz-adv-x="1217" 
d="M610 963q222 0 376.5 -130t154.5 -362q0 -233 -157 -361t-374 -128q-235 0 -384.5 136.5t-149.5 354.5q0 222 152.5 356t381.5 134zM610 158q213 0 213 321q0 307 -213 307q-102 0 -159.5 -81t-57.5 -232q0 -315 217 -315zM285 1384h338l152 -299h-152z" />
    <glyph glyph-name="ocircumflex" unicode="&#xf4;" horiz-adv-x="1217" 
d="M610 963q222 0 376.5 -130t154.5 -362q0 -233 -157 -361t-374 -128q-235 0 -384.5 136.5t-149.5 354.5q0 222 152.5 356t381.5 134zM610 158q213 0 213 321q0 307 -213 307q-102 0 -159.5 -81t-57.5 -232q0 -315 217 -315zM749 1428l203 -359h-182l-160 179l-164 -179
h-180l203 359h280z" />
    <glyph glyph-name="odieresis" unicode="&#xf6;" horiz-adv-x="1217" 
d="M610 963q222 0 376.5 -130t154.5 -362q0 -233 -157 -361t-374 -128q-235 0 -384.5 136.5t-149.5 354.5q0 222 152.5 356t381.5 134zM610 158q213 0 213 321q0 307 -213 307q-102 0 -159.5 -81t-57.5 -232q0 -315 217 -315zM847 1411q69 0 116.5 -47.5t47.5 -115.5
q0 -69 -47 -117t-117 -48q-68 0 -115.5 48t-47.5 117q0 68 47.5 115.5t115.5 47.5zM370 1411q69 1 116.5 -47t47.5 -116q0 -69 -47 -117t-117 -48q-68 0 -115.5 48t-47.5 117q0 68 47.5 115.5t115.5 47.5z" />
    <glyph glyph-name="otilde" unicode="&#xf5;" horiz-adv-x="1217" 
d="M610 963q222 0 376.5 -130t154.5 -362q0 -233 -157 -361t-374 -128q-235 0 -384.5 136.5t-149.5 354.5q0 222 152.5 356t381.5 134zM610 158q213 0 213 321q0 307 -213 307q-102 0 -159.5 -81t-57.5 -232q0 -315 217 -315zM869 1374h139q-21 -309 -239 -309
q-63 0 -177 55.5t-153 55.5q-78 0 -92 -107h-135q11 147 76 226t167 79q66 0 174.5 -55t149.5 -55q72 0 90 110z" />
    <glyph glyph-name="uacute" unicode="&#xfa;" horiz-adv-x="1194" 
d="M774 0v135q-131 -153 -305 -153q-154 0 -250 95t-96 263v604h297v-584q0 -180 149 -180q84 0 143.5 65.5t59.5 96.5v602h299v-944h-297zM924 1384l-338 -299h-152l152 299h338z" />
    <glyph glyph-name="ugrave" unicode="&#xf9;" horiz-adv-x="1194" 
d="M774 0v135q-131 -153 -305 -153q-154 0 -250 95t-96 263v604h297v-584q0 -180 149 -180q84 0 143.5 65.5t59.5 96.5v602h299v-944h-297zM272 1384h338l152 -299h-152z" />
    <glyph glyph-name="ucircumflex" unicode="&#xfb;" horiz-adv-x="1194" 
d="M774 0v135q-131 -153 -305 -153q-154 0 -250 95t-96 263v604h297v-584q0 -180 149 -180q84 0 143.5 65.5t59.5 96.5v602h299v-944h-297zM737 1428l203 -359h-182l-160 179l-164 -179h-180l203 359h280z" />
    <glyph glyph-name="udieresis" unicode="&#xfc;" horiz-adv-x="1194" 
d="M774 0v135q-131 -153 -305 -153q-154 0 -250 95t-96 263v604h297v-584q0 -180 149 -180q84 0 143.5 65.5t59.5 96.5v602h299v-944h-297zM835 1411q69 0 116.5 -47.5t47.5 -115.5q0 -69 -47 -117t-117 -48q-68 0 -115.5 48t-47.5 117q0 68 47.5 115.5t115.5 47.5z
M358 1411q69 1 116.5 -47t47.5 -116q0 -69 -47 -117t-117 -48q-68 0 -115.5 48t-47.5 117q0 68 47.5 115.5t115.5 47.5z" />
    <glyph glyph-name="dagger" unicode="&#x2020;" horiz-adv-x="1044" 
d="M463 780l-357 -78q-9 -2 -16 -2q-39 0 -39 80v127q0 82 40 82q6 0 15 -2l357 -80l-74 451q-5 38 13 47.5t61 9.5h121q45 0 61 -10.5t10 -44.5l-71 -453l354 80q57 13 57 -80v-127q0 -90 -55 -78l-356 78l110 -1204q6 -47 -65 -47h-213q-71 0 -66 53z" />
    <glyph glyph-name="degree" unicode="&#xb0;" horiz-adv-x="811" 
d="M86 1171q0 132 94 226t226 94q131 0 225 -94t94 -226q0 -131 -94 -225t-225 -94q-132 0 -226 94t-94 225zM549 1171q0 60 -42 102t-101 42q-60 0 -102 -42t-42 -102q0 -59 42 -101t102 -42q59 0 101 42t42 101z" />
    <glyph glyph-name="cent" unicode="&#xa2;" horiz-adv-x="1024" 
d="M965 1294l-113 -362q55 -17 80 -29v-223q-65 36 -141 57l-170 -536q29 -4 60 -4q129 0 265 67v-219q-157 -63 -393 -63l-117 -369h-145l123 387q-330 112 -330 465q0 216 147 356.5t387 140.5q46 0 95 -6l106 338h146zM492 254l155 489q-117 -9 -185.5 -85t-68.5 -187
q0 -137 99 -217z" />
    <glyph glyph-name="sterling" unicode="&#xa3;" horiz-adv-x="1067" 
d="M688 809v-244h-199l-53 -266q32 10 64 10q64 0 159 -22.5t158 -22.5q92 0 166 35v-276q-86 -41 -182 -41q-33 0 -164.5 24.5t-220.5 24.5q-144 0 -320 -49q15 213 107 583h-92v244h157q106 377 245.5 491.5t286.5 114.5q25 0 50 -4l119 -268q-53 12 -99 12
q-235 0 -313 -346h131z" />
    <glyph glyph-name="section" unicode="&#xa7;" horiz-adv-x="1067" 
d="M231 891q-59 83 -77.5 123t-18.5 92q0 142 111 225.5t301 83.5q181 0 281 -62t100 -161q0 -63 -44.5 -107.5t-107.5 -44.5q-95 0 -128 109q-13 46 -33 68t-72 22q-51 0 -85 -29.5t-34 -72.5q0 -33 32 -72.5t223 -168t263 -243.5t72 -231q0 -112 -43 -195.5t-140 -175.5
q95 -121 95 -231q0 -135 -106 -213t-292 -78q-170 0 -279.5 63t-109.5 158q0 58 46 103t106 45q103 0 134 -120q10 -39 27.5 -56t69.5 -17t84.5 27t32.5 69q0 40 -35.5 85t-226.5 173t-258.5 236t-67.5 217q0 202 180 379zM383 756q-70 -83 -70 -164q0 -60 45 -126.5
t326 -275.5q70 75 70 156q0 117 -134 223z" />
    <glyph glyph-name="bullet" unicode="&#x2022;" horiz-adv-x="725" 
d="M66 698q0 123 86 209t208 86q123 0 209 -86t86 -209q0 -122 -86 -208.5t-209 -86.5q-122 0 -208 86.5t-86 208.5z" />
    <glyph glyph-name="paragraph" unicode="&#xb6;" horiz-adv-x="1130" 
d="M635 -473h-244v1046q-185 15 -289 121t-104 285q0 196 119.5 306.5t326.5 110.5h684v-262h-112v-1607h-244v1607h-137v-1607z" />
    <glyph glyph-name="germandbls" unicode="&#xdf;" horiz-adv-x="1237" 
d="M133 0v975q0 214 122 327t331 113q222 0 354.5 -97t132.5 -257q0 -189 -180 -270q237 -92 237 -381q0 -190 -115 -309t-298 -119q-72 0 -139 18v190q40 -14 55 -14q89 0 142.5 73.5t53.5 196.5q0 279 -239 269v147q182 -7 182 189q0 88 -44.5 138t-123.5 50
q-174 0 -174 -260v-979h-297z" />
    <glyph glyph-name="registered" unicode="&#xae;" horiz-adv-x="1516" 
d="M758 1415q318 0 542 -224t224 -542t-224 -542t-542 -224q-319 0 -542.5 223.5t-223.5 542.5q0 318 223.5 542t542.5 224zM758 1263q-256 0 -435.5 -179t-179.5 -435t179.5 -436t435.5 -180q255 0 435.5 180t180.5 436t-180 435t-436 179zM1118 239h-203l-65 134
q-33 67 -76.5 120t-72.5 66.5t-95 13.5h-31v-334h-163v814h401q118 0 187 -60t69 -168q0 -195 -219 -227v-4q50 -18 81.5 -51.5t92.5 -139.5zM575 702h170q150 0 150 113q0 111 -168 111h-152v-224z" />
    <glyph glyph-name="copyright" unicode="&#xa9;" horiz-adv-x="1516" 
d="M758 1415q318 0 542 -224t224 -542t-224 -542t-542 -224q-319 0 -542.5 223.5t-223.5 542.5q0 318 223.5 542t542.5 224zM758 1263q-256 0 -435.5 -179t-179.5 -435t179.5 -436t435.5 -180q255 0 435.5 180t180.5 436t-180 435t-436 179zM942 536l162 -55
q-81 -258 -336 -258q-179 0 -283 115t-104 305q0 197 103.5 314.5t285.5 117.5q248 0 334 -244l-162 -39q-52 140 -178 140q-207 0 -207 -283q0 -130 51.5 -207.5t147.5 -77.5q137 0 186 172z" />
    <glyph glyph-name="trademark" unicode="&#x2122;" horiz-adv-x="2048" 
d="M469 577v676h-252v143h664v-143h-246v-676h-166zM979 577v819h260l152 -565l147 565h260v-819h-158v653l-178 -653h-149l-176 653v-653h-158z" />
    <glyph glyph-name="acute" unicode="&#xb4;" 
d="M668 1384l-338 -299h-152l152 299h338z" />
    <glyph glyph-name="dieresis" unicode="&#xa8;" 
d="M579 1411q69 0 116.5 -47.5t47.5 -115.5q0 -69 -47 -117t-117 -48q-68 0 -115.5 48t-47.5 117q0 68 47.5 115.5t115.5 47.5zM102 1411q69 1 116.5 -47t47.5 -116q0 -69 -47 -117t-117 -48q-68 0 -115.5 48t-47.5 117q0 68 47.5 115.5t115.5 47.5z" />
    <glyph glyph-name="notequal" unicode="&#x2260;" horiz-adv-x="1124" 
d="M1106 279h-621l-184 -330l-100 57l151 273h-321v112h385l157 285h-542v112h606l186 336l101 -57l-156 -279h338v-112h-399l-160 -285h559v-112z" />
    <glyph glyph-name="AE" unicode="&#xc6;" horiz-adv-x="2198" 
d="M2064 1397v-256h-651v-305h623v-256h-623v-324h670v-256h-1018v580h-373l-346 -580h-358l835 1397h1241zM846 836h219v378z" />
    <glyph glyph-name="Oslash" unicode="&#xd8;" horiz-adv-x="1792" 
d="M403 125l-225 -201l-125 156l205 178q-162 198 -162 440q0 286 222.5 501.5t580.5 215.5q278 0 492 -145l172 155l141 -141l-170 -147q162 -196 162 -439q0 -291 -223.5 -503.5t-573.5 -212.5q-278 0 -496 143zM506 483l645 576q-107 65 -252 65q-199 0 -321.5 -117.5
t-122.5 -308.5q0 -125 51 -215zM1286 915l-643 -577q99 -66 256 -66q197 0 317.5 117.5t120.5 308.5q0 128 -51 217z" />
    <glyph glyph-name="infinity" unicode="&#x221e;" horiz-adv-x="1460" 
d="M681 843q74 121 151 174.5t172 53.5q132 0 219.5 -93.5t87.5 -255.5t-87.5 -255.5t-219.5 -93.5q-94 0 -171 53t-152 175q-60 -84 -138 -128t-149 -44q-101 0 -171.5 78.5t-70.5 214.5t70.5 214t171.5 78q71 0 149 -44t138 -127zM774 724q84 -129 118 -158
q53 -45 115 -45q76 0 117 59t41 146q0 94 -45 146t-110 52q-51 0 -102.5 -36t-133.5 -164zM595 726q-100 141 -190 141q-46 0 -79.5 -37t-33.5 -103q0 -68 33 -106t80 -38q39 0 70 21q54 36 120 122z" />
    <glyph glyph-name="plusminus" unicode="&#xb1;" horiz-adv-x="1196" 
d="M86 737v262h381v381h262v-381h381v-262h-381v-381h-262v381h-381zM86 0v262h1024v-262h-1024z" />
    <glyph glyph-name="lessequal" unicode="&#x2264;" horiz-adv-x="1124" 
d="M1077 240l-1018 471v127l1018 471v-127l-887 -408l887 -407v-127zM1077 0h-1018v112h1018v-112z" />
    <glyph glyph-name="greaterequal" unicode="&#x2265;" horiz-adv-x="1124" 
d="M1077 711l-1018 -471v127l887 407l-887 408v127l1018 -471v-127zM1077 0h-1018v112h1018v-112z" />
    <glyph glyph-name="yen" unicode="&#xa5;" horiz-adv-x="1130" 
d="M422 272h-371v224h371v118h-371v224h260l-309 628h309l254 -567l256 567h309l-315 -628h264v-224h-374v-118h374v-224h-374v-272h-283v272z" />
    <glyph glyph-name="mu1" unicode="&#xb5;" horiz-adv-x="1260" 
d="M139 944h297v-461q0 -303 189 -303q90 0 143 71.5t53 194.5v498h297v-944h-276v123h-4q-24 -68 -80.5 -104.5t-122.5 -36.5q-136 0 -195 133h-4v-475h-297v1304z" />
    <glyph glyph-name="partialdiff" unicode="&#x2202;" horiz-adv-x="1012" 
d="M379 1123l-137 84q52 142 150.5 213t219.5 71q145 0 234 -100q131 -145 131 -448q0 -261 -83 -506t-230 -353.5t-309 -108.5q-138 0 -224.5 92t-86.5 262q0 158 87 303t266 230t429 80q-1 200 -74 296q-54 71 -145 71q-69 0 -120.5 -39.5t-107.5 -146.5zM814 758
q-29 1 -44 1q-137 0 -255.5 -55.5t-180 -158.5t-61.5 -207q0 -78 42 -125.5t99 -47.5q119 0 217 115q141 165 183 478z" />
    <glyph glyph-name="summation" unicode="&#x2211;" horiz-adv-x="1460" 
d="M139 1491h1237v-164h-988l607 -775l-649 -822h1040v-161h-1264v187l620 788l-603 772v175z" />
    <glyph glyph-name="product" unicode="&#x220f;" horiz-adv-x="1686" 
d="M161 1491h1362v-1922h-191v1748h-978v-1748h-193v1922z" />
    <glyph glyph-name="pi1" unicode="&#x3c0;" horiz-adv-x="1124" 
d="M0 1063h1124v-202h-169v-861h-288v861h-208v-861h-292v861h-167v202z" />
    <glyph glyph-name="integral" unicode="&#x222b;" horiz-adv-x="561" 
d="M602 1760q0 -39 -29.5 -64t-75.5 -25q-37 0 -60 25t-44 25q-18 0 -27.5 -14.5t-9.5 -43.5q0 -34 19.5 -256t19.5 -551q0 -505 -30 -709.5t-79 -282.5q-26 -41 -67.5 -62t-85.5 -21q-49 0 -86 35t-37 85q0 38 25.5 65t64.5 27q34 0 65.5 -33t44.5 -33q25 0 39.5 44.5
t14.5 153.5q0 37 -6 197t-6 562q0 481 17 638.5t41 215.5q29 70 69 104t84 34q57 0 98 -32.5t41 -83.5z" />
    <glyph glyph-name="ordfeminine" unicode="&#xaa;" horiz-adv-x="725" 
d="M723 995v-116q-102 -56 -191 -56q-91 0 -114 56q-95 -56 -193 -56q-77 0 -128.5 44.5t-51.5 109.5q0 62 58 112t303 113q0 84 -93 84q-128 0 -235 -110v167q125 72 274 72q125 0 197 -44.5t72 -131.5v-244q0 -37 18 -37q24 0 84 37zM406 977v121q-87 -28 -115.5 -48.5
t-28.5 -54.5q0 -53 51 -53q47 0 93 35z" />
    <glyph glyph-name="ordmasculine" unicode="&#xba;" horiz-adv-x="811" 
d="M408 1415q153 0 252.5 -84t99.5 -209q0 -131 -98 -215t-254 -84q-155 0 -255 83t-100 210q0 128 101 213.5t254 85.5zM410 944q120 0 120 184q0 166 -127 166q-120 0 -120 -180q0 -170 127 -170z" />
    <glyph glyph-name="Omega" unicode="&#x2126;" horiz-adv-x="1573" 
d="M462 206q-116 49 -185 112q-101 90 -150.5 216t-49.5 277q0 310 191.5 501t508.5 191q233 0 389.5 -79t250 -244.5t93.5 -366.5q0 -202 -93.5 -360.5t-288.5 -244.5l330 23h72v-231h-642v243q97 47 153 105q76 80 114.5 194.5t38.5 241.5q0 247 -114.5 373.5
t-292.5 126.5q-170 0 -284.5 -129.5t-114.5 -365.5q0 -136 43.5 -253t124.5 -198q52 -52 144 -95v-243h-645v230h98z" />
    <glyph glyph-name="ae" unicode="&#xe6;" horiz-adv-x="1599" 
d="M1518 305v-194q-173 -129 -410 -129t-383 129q-167 -129 -383 -129q-120 0 -194 67.5t-74 167.5q0 122 99 206t470 181q7 73 -40 116.5t-128 43.5q-80 0 -181 -44t-179 -116v236q210 123 389 123q167 0 307 -105q117 105 281 105q193 0 323.5 -150.5t116.5 -386.5h-592
q-6 -125 58.5 -196.5t175.5 -71.5q178 0 344 147zM940 582h307q-16 204 -157 204q-143 0 -150 -204zM643 225v232q-268 -74 -268 -201q0 -42 27 -70t67 -28q69 0 174 67z" />
    <glyph glyph-name="oslash" unicode="&#xf8;" horiz-adv-x="1217" 
d="M338 43l-133 -154l-105 93l121 141q-145 139 -145 350q0 222 152.5 356t381.5 134q147 0 271 -60l143 166l109 -104l-127 -150q135 -128 135 -344q0 -233 -157 -361t-374 -128q-157 0 -272 61zM406 340l337 399q-55 47 -133 47q-102 0 -159.5 -81t-57.5 -232
q0 -82 13 -133zM813 596l-336 -391q51 -47 133 -47q213 0 213 321q0 69 -10 117z" />
    <glyph glyph-name="questiondown" unicode="&#xbf;" horiz-adv-x="768" 
d="M623 784q0 -73 -52.5 -125.5t-126.5 -52.5q-73 0 -125.5 52.5t-52.5 125.5q0 74 52.5 126.5t125.5 52.5q74 0 126.5 -52.5t52.5 -126.5zM717 -178l-51 -252q-118 -41 -238 -41q-156 0 -247 78t-91 209q0 75 28 155.5t126 203t120.5 181t22.5 111.5v25q0 21 12.5 26.5
t51.5 5.5q37 0 52.5 -16t36.5 -87t21 -126q0 -112 -94 -273q-66 -112 -66 -167q0 -105 121 -105q91 0 176 72h19z" />
    <glyph glyph-name="exclamdown" unicode="&#xa1;" horiz-adv-x="555" 
d="M455 784q0 -73 -52.5 -125.5t-126.5 -52.5q-73 0 -125.5 52.5t-52.5 125.5q0 74 52.5 126.5t125.5 52.5q74 0 126.5 -52.5t52.5 -126.5zM106 -250q0 140 47.5 414.5t65.5 316t57 41.5q42 0 57 -34.5t65.5 -294.5t50.5 -443q0 -221 -173 -221q-170 0 -170 221z" />
    <glyph glyph-name="logicalnot" unicode="&#xac;" horiz-adv-x="1196" 
d="M846 238v436h-760v262h1022v-698h-262z" />
    <glyph glyph-name="radical" unicode="&#x221a;" horiz-adv-x="1124" 
d="M1055 1868l-307 -1946l-498 1028l-197 -96l-33 68l299 147l404 -825l260 1634z" />
    <glyph glyph-name="florin" unicode="&#x192;" horiz-adv-x="1130" 
d="M276 850l37 211h201l31 170q25 145 101 202.5t224 57.5h9q135 0 264 -41l-56 -225q-91 26 -157 26q-57 0 -84 -24.5t-49 -165.5h207l-37 -211h-205l-174 -993q-28 -164 -104 -225.5t-224 -61.5t-280 39l57 221q97 -20 170 -20q67 0 86 38t35 129l149 873h-201z" />
    <glyph glyph-name="approxequal" unicode="&#x2248;" horiz-adv-x="1196" 
d="M33 740v269q177 147 327 147q86 0 257 -80q172 -80 245 -80q125 0 299 152v-266q-63 -62 -154.5 -105t-168.5 -43q-85 0 -261 81t-233 81q-128 0 -311 -156zM33 296v269q177 147 327 147q86 0 257 -80q172 -80 245 -80q125 0 299 152v-266q-63 -62 -154.5 -105
t-168.5 -43q-85 0 -261 81t-233 81q-128 0 -311 -156z" />
    <glyph glyph-name="increment" unicode="&#x2206;" horiz-adv-x="1253" 
d="M668 1409l577 -1409h-1233zM594 1059l-447 -959h844z" />
    <glyph glyph-name="guillemotleft" unicode="&#xab;" horiz-adv-x="1217" 
d="M868 469l326 -455h-293l-330 455l330 455h293zM315 469l326 -455h-293l-330 455l330 455h293z" />
    <glyph glyph-name="guillemotright" unicode="&#xbb;" horiz-adv-x="1217" 
d="M899 469l-326 455h293l330 -455l-330 -455h-293zM350 469l-325 455h292l330 -455l-330 -455h-292z" />
    <glyph glyph-name="ellipsis" unicode="&#x2026;" horiz-adv-x="2048" 
d="M1528 160q0 73 52.5 125.5t125.5 52.5t125.5 -52.5t52.5 -125.5q0 -74 -52.5 -126t-125.5 -52t-125.5 52t-52.5 126zM846 160q0 73 52.5 125.5t125.5 52.5t125.5 -52.5t52.5 -125.5q0 -74 -52.5 -126t-125.5 -52t-125.5 52t-52.5 126zM164 160q0 73 52.5 125.5
t125.5 52.5t125.5 -52.5t52.5 -125.5q0 -74 -52.5 -126t-125.5 -52t-125.5 52t-52.5 126z" />
    <glyph glyph-name="nbspace" unicode="&#xa0;" horiz-adv-x="569" 
 />
    <glyph glyph-name="Agrave" unicode="&#xc0;" horiz-adv-x="1599" 
d="M973 1397l620 -1397h-374l-115 276h-625l-104 -276h-369l563 1397h404zM1001 520l-225 543l-205 -543h430zM475 1831h338l152 -299h-152z" />
    <glyph glyph-name="Atilde" unicode="&#xc3;" horiz-adv-x="1599" 
d="M973 1397l620 -1397h-374l-115 276h-625l-104 -276h-369l563 1397h404zM1001 520l-225 543l-205 -543h430zM1059 1821h139q-21 -309 -239 -309q-63 0 -177 55.5t-153 55.5q-78 0 -92 -107h-135q11 147 76 226t167 79q66 0 174.5 -55t149.5 -55q72 0 90 110z" />
    <glyph glyph-name="Otilde" unicode="&#xd5;" horiz-adv-x="1792" 
d="M897 1415q357 0 578 -215.5t221 -501.5q0 -290 -224 -503t-575 -213q-355 0 -578 212t-223 504q0 287 221.5 502t579.5 215zM897 272q198 0 319 117.5t121 308.5q0 192 -121 309t-319 117q-199 0 -320.5 -117t-121.5 -309q0 -191 121.5 -308.5t320.5 -117.5zM1155 1821
h139q-21 -309 -239 -309q-63 0 -177 55.5t-153 55.5q-78 0 -92 -107h-135q11 147 76 226t167 79q66 0 174.5 -55t149.5 -55q72 0 90 110z" />
    <glyph glyph-name="OE" unicode="&#x152;" horiz-adv-x="2241" 
d="M2118 1397v-256h-654v-293h625v-256h-625v-336h668v-256h-1255q-354 0 -567.5 188.5t-213.5 513.5q0 317 210 506t568 189h1244zM1116 1141h-168q-224 0 -358.5 -126.5t-134.5 -316.5t135 -316t358 -126h168v885z" />
    <glyph glyph-name="oe" unicode="&#x153;" horiz-adv-x="1792" 
d="M1714 305v-203q-177 -120 -373 -120q-198 0 -366 120q-165 -120 -367 -120q-226 0 -380 142t-154 353q0 208 153.5 347t384.5 139q186 0 349 -113q72 59 131.5 86t152.5 27q218 0 356.5 -145t129.5 -392h-609q-4 -118 68.5 -193t181.5 -75q183 0 342 147zM1122 582h336
q0 88 -47.5 146t-126.5 58q-72 0 -117 -56t-45 -148zM608 158q217 0 217 334q0 141 -57.5 217.5t-163.5 76.5q-213 0 -213 -317q0 -311 217 -311z" />
    <glyph glyph-name="endash" unicode="&#x2013;" horiz-adv-x="1024" 
d="M1036 608v-270h-1048v270h1048z" />
    <glyph glyph-name="emdash" unicode="&#x2014;" horiz-adv-x="2048" 
d="M2060 608v-270h-2072v270h2072z" />
    <glyph glyph-name="quotedblleft" unicode="&#x201c;" horiz-adv-x="1153" 
d="M1047 1415v-63q-95 -91 -95 -231q0 -17 2 -34q105 -40 105 -149q0 -70 -48 -116t-120 -46q-90 0 -147.5 65.5t-57.5 168.5q0 148 101.5 267t259.5 138zM477 1415v-63q-94 -91 -94 -231q0 -17 2 -34q104 -40 104 -149q0 -70 -47.5 -116t-119.5 -46q-90 0 -147.5 65.5
t-57.5 168.5q0 148 101.5 267t258.5 138z" />
    <glyph glyph-name="quotedblright" unicode="&#x201d;" horiz-adv-x="1153" 
d="M676 776v64q94 90 94 230q0 18 -2 34q-104 40 -104 149q0 70 47.5 116t119.5 46q90 0 147.5 -65t57.5 -168q0 -149 -101.5 -268t-258.5 -138zM106 776v64q95 90 95 230q0 18 -2 34q-105 40 -105 149q0 70 48 116t120 46q90 0 147.5 -65t57.5 -168q0 -149 -101.5 -268
t-259.5 -138z" />
    <glyph glyph-name="quoteleft" unicode="&#x2018;" horiz-adv-x="555" 
d="M453 1415v-63q-95 -91 -95 -231q0 -17 2 -34q105 -40 105 -149q0 -70 -48 -116t-120 -46q-90 0 -147.5 65.5t-57.5 168.5q0 148 101.5 267t259.5 138z" />
    <glyph glyph-name="quoteright" unicode="&#x2019;" horiz-adv-x="555" 
d="M102 776v64q95 90 95 230q0 18 -2 34q-105 40 -105 149q0 70 48 116t120 46q90 0 147.5 -65t57.5 -168q0 -149 -101.5 -268t-259.5 -138z" />
    <glyph glyph-name="divide" unicode="&#xf7;" horiz-adv-x="1196" 
d="M449 1126q0 62 44 106t105 44t105.5 -44t44.5 -106q0 -61 -44.5 -105t-105.5 -44t-105 44t-44 105zM86 592v262h1024v-262h-1024zM449 319q0 62 44 106t105 44t105.5 -44t44.5 -106q0 -61 -44.5 -105t-105.5 -44t-105 44t-44 105z" />
    <glyph glyph-name="lozenge" unicode="&#x25ca;" horiz-adv-x="1012" 
d="M962 763l-397 -763h-122l-397 763l397 763h122zM839 763l-335 652l-335 -652l335 -652z" />
    <glyph glyph-name="ydieresis" unicode="&#xff;" horiz-adv-x="1044" 
d="M1042 944l-632 -1397h-316l277 607l-369 790h317l199 -485l213 485h311zM761 1411q69 0 116.5 -47.5t47.5 -115.5q0 -69 -47 -117t-117 -48q-68 0 -115.5 48t-47.5 117q0 68 47.5 115.5t115.5 47.5zM284 1411q69 1 116.5 -47t47.5 -116q0 -69 -47 -117t-117 -48
q-68 0 -115.5 48t-47.5 117q0 68 47.5 115.5t115.5 47.5z" />
    <glyph glyph-name="Ydieresis" unicode="&#x178;" horiz-adv-x="1450" 
d="M551 0v653l-551 744h422l303 -439l305 439h420l-551 -744v-653h-348zM964 1858q69 0 116.5 -47.5t47.5 -115.5q0 -69 -47 -117t-117 -48q-68 0 -115.5 48t-47.5 117q0 68 47.5 115.5t115.5 47.5zM487 1858q69 1 116.5 -47t47.5 -116q0 -69 -47 -117t-117 -48
q-68 0 -115.5 48t-47.5 117q0 68 47.5 115.5t115.5 47.5z" />
    <glyph glyph-name="fraction" unicode="&#x2215;" horiz-adv-x="449" 
d="M809 1415l-979 -1470h-192l980 1470h191z" />
    <glyph glyph-name="Euro" unicode="&#x20ac;" horiz-adv-x="1284" 
d="M530 934h547l-33 -168h-552q-3 -31 -3 -62q0 -30 3 -69h536l-33 -168h-471q47 -115 113.5 -169t177.5 -54q72 0 144 22.5t182 73.5v-268q-199 -90 -371 -90q-219 0 -364.5 126.5t-200.5 358.5h-172l33 168h116q0 100 2 131h-151l33 168h145q62 228 220.5 354.5
t393.5 126.5q145 0 340 -43l-43 -260q-158 41 -276 41q-236 0 -316 -219z" />
    <glyph glyph-name="guilsinglleft" unicode="&#x2039;" horiz-adv-x="662" 
d="M315 469l326 -455h-293l-330 455l330 455h293z" />
    <glyph glyph-name="guilsinglright" unicode="&#x203a;" horiz-adv-x="662" 
d="M346 469l-326 455h293l330 -455l-330 -455h-293z" />
    <glyph glyph-name="fi" unicode="&#xfb01;" horiz-adv-x="1217" 
d="M719 1163q-43 6 -74 6q-100 0 -141 -43.5t-41 -181.5h190v-203h-190v-741h-297v741h-125v203h125q0 471 420 471q75 0 133 -18v-234zM780 1255q0 66 48 113t114 47t113 -47t47 -113t-47 -113.5t-113 -47.5t-114 48t-48 113zM1090 944v-944h-297v944h297z" />
    <glyph glyph-name="fl" unicode="&#xfb02;" horiz-adv-x="1217" 
d="M653 944v-203h-190v-741h-297v741h-123v203h123q0 471 420 471q75 0 133 -18v-234q-43 6 -74 6q-100 0 -141 -43.5t-41 -181.5h190zM1090 1397v-1397h-297v1397h297z" />
    <glyph glyph-name="daggerdbl" unicode="&#x2021;" horiz-adv-x="1044" 
d="M911 145q14 4 25 4q57 0 57 -131q0 -139 -41 -139q-6 0 -24 4l-355 80l84 -352q4 -15 4 -26q0 -56 -139 -56q-138 0 -138 56q0 11 3 26l82 352l-352 -80q-14 -3 -23 -3q-24 0 -33.5 29.5t-9.5 115.5q0 124 56 124q12 0 26 -4l336 -79l-82 407l82 406l-336 -80
q-17 -5 -28 -5q-54 0 -54 136q0 146 49 135l369 -84l-82 352q-3 15 -3 26q0 56 138 56q140 0 140 -56q0 -10 -3 -20l-86 -358l355 80q15 3 23 3q42 0 42 -142q0 -127 -56 -127q-11 0 -26 4l-338 80l84 -406l-84 -407z" />
    <glyph glyph-name="periodcentered" unicode="&#x2219;" horiz-adv-x="555" 
d="M98 707q0 73 52.5 125.5t125.5 52.5q74 0 126.5 -52.5t52.5 -125.5q0 -74 -52.5 -126.5t-126.5 -52.5q-73 0 -125.5 52.5t-52.5 126.5z" />
    <glyph glyph-name="quotesinglbase" unicode="&#x201a;" horiz-adv-x="555" 
d="M102 -346v63q95 91 95 231q0 17 -2 34q-105 40 -105 149q0 70 48 116t120 46q90 0 147.5 -65.5t57.5 -168.5q0 -148 -101.5 -267t-259.5 -138z" />
    <glyph glyph-name="quotedblbase" unicode="&#x201e;" horiz-adv-x="1153" 
d="M688 -346v63q94 91 94 231q0 17 -2 34q-104 40 -104 149q0 70 47.5 116t120.5 46q90 0 147.5 -65.5t57.5 -168.5q0 -148 -102 -267t-259 -138zM117 -346v63q94 91 94 231q0 17 -2 34q-105 40 -105 149q0 70 48 116t120 46q90 0 147.5 -65.5t57.5 -168.5
q0 -148 -101.5 -267t-258.5 -138z" />
    <glyph glyph-name="perthousand" unicode="&#x2030;" horiz-adv-x="2218" 
d="M375 1415q136 0 233 -96t97 -234q0 -135 -97.5 -232t-232.5 -97q-136 0 -233 97t-97 232q0 138 96.5 234t233.5 96zM375 932q61 0 103 44.5t42 108.5q0 63 -43 108.5t-102 45.5q-62 0 -104 -44t-42 -110q0 -61 43.5 -107t102.5 -46zM1303 1415l-977 -1431h-170l983 1431
h164zM1843 641q137 0 233.5 -96.5t96.5 -233.5q0 -135 -97 -232t-233 -97q-135 0 -232.5 97t-97.5 232q0 137 97 233.5t233 96.5zM1843 158q61 0 103.5 44.5t42.5 108.5q0 63 -43 108.5t-103 45.5q-61 0 -103 -44t-42 -110q0 -61 43 -107t102 -46zM1087 641
q137 0 233.5 -96.5t96.5 -233.5q0 -135 -97 -232t-233 -97q-135 0 -232 97t-97 232q0 137 96.5 233.5t232.5 96.5zM1087 158q61 0 103.5 44.5t42.5 108.5q0 63 -43 108.5t-103 45.5q-61 0 -103 -44t-42 -110q0 -61 43.5 -107t101.5 -46z" />
    <glyph glyph-name="Acircumflex" unicode="&#xc2;" horiz-adv-x="1599" 
d="M973 1397l620 -1397h-374l-115 276h-625l-104 -276h-369l563 1397h404zM1001 520l-225 543l-205 -543h430zM940 1875l203 -359h-182l-160 179l-164 -179h-180l203 359h280z" />
    <glyph glyph-name="Ecircumflex" unicode="&#xca;" horiz-adv-x="1300" 
d="M1190 256v-256h-1030v1397h1016v-256h-668v-293h637v-256h-637v-336h682zM790 1875l203 -359h-182l-160 179l-164 -179h-180l203 359h280z" />
    <glyph glyph-name="Aacute" unicode="&#xc1;" horiz-adv-x="1599" 
d="M973 1397l620 -1397h-374l-115 276h-625l-104 -276h-369l563 1397h404zM1001 520l-225 543l-205 -543h430zM1127 1831l-338 -299h-152l152 299h338z" />
    <glyph glyph-name="Edieresis" unicode="&#xcb;" horiz-adv-x="1300" 
d="M1190 256v-256h-1030v1397h1016v-256h-668v-293h637v-256h-637v-336h682zM888 1858q69 0 116.5 -47.5t47.5 -115.5q0 -69 -47 -117t-117 -48q-68 0 -115.5 48t-47.5 117q0 68 47.5 115.5t115.5 47.5zM411 1858q69 1 116.5 -47t47.5 -116q0 -69 -47 -117t-117 -48
q-68 0 -115.5 48t-47.5 117q0 68 47.5 115.5t115.5 47.5z" />
    <glyph glyph-name="Egrave" unicode="&#xc8;" horiz-adv-x="1300" 
d="M1190 256v-256h-1030v1397h1016v-256h-668v-293h637v-256h-637v-336h682zM326 1831h338l152 -299h-152z" />
    <glyph glyph-name="Iacute" unicode="&#xcd;" 
d="M516 1397v-1397h-348v1397h348zM668 1831l-338 -299h-152l152 299h338z" />
    <glyph glyph-name="Icircumflex" unicode="&#xce;" 
d="M516 1397v-1397h-348v1397h348zM481 1875l203 -359h-182l-160 179l-164 -179h-180l203 359h280z" />
    <glyph glyph-name="Idieresis" unicode="&#xcf;" 
d="M516 1397v-1397h-348v1397h348zM579 1858q69 0 116.5 -47.5t47.5 -115.5q0 -69 -47 -117t-117 -48q-68 0 -115.5 48t-47.5 117q0 68 47.5 115.5t115.5 47.5zM102 1858q69 1 116.5 -47t47.5 -116q0 -69 -47 -117t-117 -48q-68 0 -115.5 48t-47.5 117q0 68 47.5 115.5
t115.5 47.5z" />
    <glyph glyph-name="Igrave" unicode="&#xcc;" 
d="M516 1397v-1397h-348v1397h348zM16 1831h338l152 -299h-152z" />
    <glyph glyph-name="Oacute" unicode="&#xd3;" horiz-adv-x="1792" 
d="M897 1415q357 0 578 -215.5t221 -501.5q0 -290 -224 -503t-575 -213q-355 0 -578 212t-223 504q0 287 221.5 502t579.5 215zM897 272q198 0 319 117.5t121 308.5q0 192 -121 309t-319 117q-199 0 -320.5 -117t-121.5 -309q0 -191 121.5 -308.5t320.5 -117.5zM1223 1831
l-338 -299h-152l152 299h338z" />
    <glyph glyph-name="Ocircumflex" unicode="&#xd4;" horiz-adv-x="1792" 
d="M897 1415q357 0 578 -215.5t221 -501.5q0 -290 -224 -503t-575 -213q-355 0 -578 212t-223 504q0 287 221.5 502t579.5 215zM897 272q198 0 319 117.5t121 308.5q0 192 -121 309t-319 117q-199 0 -320.5 -117t-121.5 -309q0 -191 121.5 -308.5t320.5 -117.5zM1036 1875
l203 -359h-182l-160 179l-164 -179h-180l203 359h280z" />
    <glyph glyph-name="Ograve" unicode="&#xd2;" horiz-adv-x="1792" 
d="M897 1415q357 0 578 -215.5t221 -501.5q0 -290 -224 -503t-575 -213q-355 0 -578 212t-223 504q0 287 221.5 502t579.5 215zM897 272q198 0 319 117.5t121 308.5q0 192 -121 309t-319 117q-199 0 -320.5 -117t-121.5 -309q0 -191 121.5 -308.5t320.5 -117.5zM571 1831
h338l152 -299h-152z" />
    <glyph glyph-name="Uacute" unicode="&#xda;" horiz-adv-x="1686" 
d="M1192 1397h348v-793q0 -306 -181 -464t-517 -158q-332 0 -515.5 160t-183.5 460v795h349v-803q0 -146 95.5 -234t250.5 -88q161 0 257.5 90t96.5 256v779zM1170 1831l-338 -299h-152l152 299h338z" />
    <glyph glyph-name="Ucircumflex" unicode="&#xdb;" horiz-adv-x="1686" 
d="M1192 1397h348v-793q0 -306 -181 -464t-517 -158q-332 0 -515.5 160t-183.5 460v795h349v-803q0 -146 95.5 -234t250.5 -88q161 0 257.5 90t96.5 256v779zM983 1875l203 -359h-182l-160 179l-164 -179h-180l203 359h280z" />
    <glyph glyph-name="Ugrave" unicode="&#xd9;" horiz-adv-x="1686" 
d="M1192 1397h348v-793q0 -306 -181 -464t-517 -158q-332 0 -515.5 160t-183.5 460v795h349v-803q0 -146 95.5 -234t250.5 -88q161 0 257.5 90t96.5 256v779zM518 1831h338l152 -299h-152z" />
    <glyph glyph-name="dotlessi" unicode="&#x131;" horiz-adv-x="555" 
d="M426 944v-944h-297v944h297z" />
    <glyph glyph-name="circumflex" unicode="&#x2c6;" 
d="M481 1428l203 -359h-182l-160 179l-164 -179h-180l203 359h280z" />
    <glyph glyph-name="tilde" unicode="&#x2dc;" 
d="M600 1374h139q-21 -309 -239 -309q-63 0 -177 55.5t-153 55.5q-78 0 -92 -107h-135q11 147 76 226t167 79q66 0 174.5 -55t149.5 -55q72 0 90 110z" />
    <glyph glyph-name="macron" unicode="&#x2c9;" 
d="M737 1317v-199h-792v199h792z" />
    <glyph glyph-name="breve" unicode="&#x2d8;" 
d="M512 1477h203q-15 -138 -120.5 -244.5t-248.5 -106.5t-243.5 91t-135.5 260h205q42 -127 168 -127q136 0 172 127z" />
    <glyph glyph-name="dotaccent" unicode="&#x2d9;" 
d="M342 1411q69 0 116.5 -47.5t47.5 -115.5q0 -69 -47 -117t-117 -48q-68 0 -115.5 48t-47.5 117q0 68 47.5 115.5t115.5 47.5z" />
    <glyph glyph-name="ring" unicode="&#x2da;" 
d="M133 1249q0 86 61.5 146.5t147.5 60.5t146.5 -60.5t60.5 -146.5t-61 -147.5t-146 -61.5q-86 0 -147.5 62t-61.5 147zM455 1249q0 46 -33.5 78.5t-79.5 32.5t-78.5 -32.5t-32.5 -78.5t32.5 -79t78.5 -33t79.5 33t33.5 79z" />
    <glyph glyph-name="cedilla" unicode="&#xb8;" 
d="M479 16l-26 -63q127 -46 127 -150q0 -77 -59 -123.5t-165 -46.5q-99 0 -151 19v104q155 -5 155 64q0 57 -84 57l80 139h123z" />
    <glyph glyph-name="hungarumlaut" unicode="&#x2dd;" 
d="M774 1384l-268 -299h-146l107 299h307zM393 1384l-268 -299h-145l106 299h307z" />
    <glyph glyph-name="ogonek" unicode="&#x2db;" 
d="M520 -190v-164q-74 -31 -158 -31q-96 0 -152 62t-56 169q0 97 51 172h162q-33 -75 -33 -114q0 -49 31 -81t77 -32q23 0 78 19z" />
    <glyph glyph-name="caron" unicode="&#x2c7;" 
d="M201 1069l-203 359h182l160 -178l164 178h180l-203 -359h-280z" />
    <glyph glyph-name="Lslash" unicode="&#x141;" horiz-adv-x="1260" 
d="M1221 256v-256h-1065v446l-193 -157v280l193 158v670h348v-414l287 236v-283l-287 -236v-444h717z" />
    <glyph glyph-name="lslash" unicode="&#x142;" horiz-adv-x="555" 
d="M426 1397v-459l158 131v-238l-158 -131v-700h-297v489l-158 -131v236l158 131v672h297z" />
    <glyph glyph-name="Scaron" unicode="&#x160;" horiz-adv-x="1237" 
d="M1104 1307v-273q-278 125 -443 125q-94 0 -149.5 -31.5t-55.5 -83.5q0 -40 40 -76t195 -93t248 -106t160.5 -138t67.5 -225q0 -194 -147.5 -309t-388.5 -115q-260 0 -504 135v301q140 -94 248 -137t229 -43q205 0 205 129q0 44 -41 83t-197.5 95t-248 104t-158 137
t-66.5 228q0 180 145 290.5t388 110.5q224 0 473 -108zM480 1516l-203 359h182l160 -178l164 178h180l-203 -359h-280z" />
    <glyph glyph-name="scaron" unicode="&#x161;" horiz-adv-x="874" 
d="M772 893v-211q-170 104 -315 104q-107 0 -107 -73q0 -19 22.5 -37.5t172.5 -78t212 -137.5t62 -171q0 -147 -100 -227t-285 -80q-190 0 -338 69v209q182 -80 305 -80q144 0 144 70q0 27 -26.5 51t-178.5 83t-208 130t-56 158q0 129 107.5 210t283.5 81q169 0 305 -70z
M297 1069l-203 359h182l160 -178l164 178h180l-203 -359h-280z" />
    <glyph glyph-name="Zcaron" unicode="&#x17d;" horiz-adv-x="1430" 
d="M1364 1397l-762 -1141h762v-256h-1356l768 1141h-715v256h1303zM576 1516l-203 359h182l160 -178l164 178h180l-203 -359h-280z" />
    <glyph glyph-name="zcaron" unicode="&#x17e;" horiz-adv-x="1067" 
d="M86 944h922l-484 -741h484v-203h-969l485 741h-438v203zM394 1069l-203 359h182l160 -178l164 178h180l-203 -359h-280z" />
    <glyph glyph-name="brokenbar" unicode="&#xa6;" horiz-adv-x="575" 
d="M176 700v697h223v-697h-223zM176 -453v813h223v-813h-223z" />
    <glyph glyph-name="sfthyphen" unicode="&#xad;" horiz-adv-x="683" 
d="M608 611v-274h-533v274h533z" />
    <glyph glyph-name="overscore" unicode="&#xaf;" horiz-adv-x="1024" 
d="M-12 1600h1048v-102h-1048v102z" />
    <glyph glyph-name="Eth" unicode="&#xd0;" horiz-adv-x="1642" 
d="M154 1397h616q357 0 564.5 -195.5t207.5 -505.5q0 -325 -210.5 -510.5t-600.5 -185.5h-577v606h-170v187h170v604zM502 1141v-348h311v-187h-311v-350h227q221 0 338 121.5t117 320.5q0 206 -118.5 324.5t-340.5 118.5h-223z" />
    <glyph glyph-name="eth" unicode="&#xf0;" horiz-adv-x="1260" 
d="M1098 1288l-205 -71q266 -267 266 -664q0 -279 -152 -425t-378 -146q-236 0 -385.5 136.5t-149.5 354.5q0 205 138 347.5t337 142.5q120 0 228 -74l4 2q-39 102 -176 229l-297 -104l-45 123l225 80q-59 43 -107 65l187 131q105 -44 184 -100l281 100zM629 158
q213 0 213 321q0 307 -213 307q-103 0 -160 -81t-57 -232q0 -315 217 -315z" />
    <glyph glyph-name="Yacute" unicode="&#xdd;" horiz-adv-x="1450" 
d="M551 0v653l-551 744h422l303 -439l305 439h420l-551 -744v-653h-348zM1053 1831l-338 -299h-152l152 299h338z" />
    <glyph glyph-name="yacute" unicode="&#xfd;" horiz-adv-x="1044" 
d="M1042 944l-632 -1397h-316l277 607l-369 790h317l199 -485l213 485h311zM850 1384l-338 -299h-152l152 299h338z" />
    <glyph glyph-name="Thorn" unicode="&#xde;" horiz-adv-x="1343" 
d="M170 1397h348v-281h275q211 0 336.5 -123t125.5 -291q0 -174 -123.5 -297.5t-336.5 -123.5h-277v-281h-348v1397zM518 860v-323h162q217 0 217 161q0 91 -58 126.5t-198 35.5h-123z" />
    <glyph glyph-name="thorn" unicode="&#xfe;" horiz-adv-x="1194" 
d="M414 1397v-535q119 101 270 101q184 0 311 -139t127 -341q0 -227 -127.5 -364t-337.5 -137q-130 0 -243 65v-518h-297v1868h297zM414 676v-434q84 -62 172 -62q108 0 171.5 77.5t63.5 209.5q0 135 -58.5 210t-164.5 75q-89 0 -184 -76z" />
    <glyph glyph-name="multiply" unicode="&#xd7;" horiz-adv-x="1196" 
d="M111 420l303 303l-303 303l184 184l303 -303l303 303l184 -184l-303 -303l303 -303l-184 -184l-303 303l-303 -303z" />
    <glyph glyph-name="onesuperior" unicode="&#xb9;" 
d="M449 1415v-735h-213v735h213z" />
    <glyph glyph-name="twosuperior" unicode="&#xb2;" 
d="M637 836v-156h-569v27q177 196 248 299t71 172q0 41 -28 68.5t-70 27.5q-89 0 -211 -105v174q129 72 241 72q128 0 201.5 -56t73.5 -151q0 -126 -217 -372h260z" />
    <glyph glyph-name="threesuperior" unicode="&#xb3;" 
d="M242 987v137q112 11 112 82q0 34 -29.5 56t-76.5 22q-66 0 -162 -45v141q89 35 201 35q122 0 199 -50.5t77 -129.5q0 -105 -117 -166q140 -55 140 -182q0 -96 -85.5 -156.5t-224.5 -60.5q-92 0 -210 49v155q103 -65 190 -65q51 0 82 23t31 61q0 85 -127 94z" />
    <glyph glyph-name="onehalf" unicode="&#xbd;" horiz-adv-x="1835" 
d="M1378 1415l-979 -1470h-192l979 1470h192zM455 1415v-735h-213v735h213zM1669 156v-156h-569v27q177 196 248 299t71 172q0 41 -27.5 68.5t-70.5 27.5q-89 0 -211 -105v175q129 71 242 71q127 0 200.5 -56t73.5 -151q0 -126 -217 -372h260z" />
    <glyph glyph-name="onequarter" unicode="&#xbc;" horiz-adv-x="1835" 
d="M455 1415v-735h-213v735h213zM1378 1415l-979 -1470h-192l979 1470h192zM1503 737v-434h58v-127h-58v-176h-207v176h-319v121l393 440h133zM1296 463l-145 -160h145v160z" />
    <glyph glyph-name="threequarters" unicode="&#xbe;" horiz-adv-x="1835" 
d="M248 987v137q112 11 112 82q0 34 -29.5 56t-76.5 22q-66 0 -162 -45v141q89 35 201 35q122 0 199 -50.5t77 -129.5q0 -105 -116 -166q139 -55 139 -182q0 -96 -85.5 -156.5t-223.5 -60.5q-92 0 -211 49v155q104 -65 190 -65q51 0 82 23t31 61q0 85 -127 94zM1425 1415
l-979 -1470h-192l979 1470h192zM1550 737v-434h58v-127h-58v-176h-207v176h-319v121l393 440h133zM1343 463l-145 -160h145v160z" />
    <glyph glyph-name="middot" unicode="&#xb7;" horiz-adv-x="683" 
d="M898 710q0 -67 -48 -115.5t-116 -48.5t-116.5 48t-48.5 116t48.5 116.5t116.5 48.5q67 0 115.5 -48.5t48.5 -116.5z" />
    <glyph glyph-name="Abreve" unicode="&#x102;" horiz-adv-x="1599" 
d="M973 1397l620 -1397h-374l-115 276h-625l-104 -276h-369l563 1397h404zM1001 520l-225 543l-205 -543h430zM971 1924h203q-15 -138 -120.5 -244.5t-248.5 -106.5t-243.5 91t-135.5 260h205q42 -127 168 -127q136 0 172 127z" />
    <glyph glyph-name="abreve" unicode="&#x103;" horiz-adv-x="1087" 
d="M1087 233v-165q-148 -86 -278 -86q-140 0 -166 106q-155 -106 -311 -106q-110 0 -187 69.5t-77 161.5q0 123 79.5 198.5t481.5 194.5q10 158 -164 158q-189 0 -348 -158v242q186 115 409 115q400 0 400 -287v-430q0 -66 49 -66q37 0 112 53zM629 229v228
q-149 -52 -204.5 -93.5t-55.5 -105.5q0 -41 28 -70.5t68 -29.5q84 0 164 71zM715 1477h203q-15 -138 -120.5 -244.5t-248.5 -106.5t-243.5 91t-135.5 260h205q42 -127 168 -127q136 0 172 127z" />
    <glyph glyph-name="Aogonek" unicode="&#x104;" horiz-adv-x="1599" 
d="M1595 0h-209q-25 -62 -25 -96q0 -48 30 -80.5t78 -32.5q23 0 78 19v-164q-74 -31 -158 -31q-98 0 -153 62.5t-55 168.5q0 86 40 154l-117 276h-625l-104 -276h-369l565 1396h402zM1003 520l-227 541l-205 -541h432z" />
    <glyph glyph-name="aogonek" unicode="&#x105;" horiz-adv-x="1088" 
d="M909 -5q-22 -55 -22 -88q0 -51 35 -79.5t81 -28.5q23 0 71 10v-163q-77 -32 -158 -32q-100 0 -156 62.5t-56 162.5q0 79 36 151q-79 19 -97 97q-154 -105 -312 -105q-111 0 -187.5 69.5t-76.5 177.5q0 64 31.5 119.5t90.5 95t185 80.5l255 83q0 77 -35 118t-128 41
q-190 0 -349 -159v240q187 115 412 115q144 0 238 -42t127 -102.5t33 -179.5v-375q0 -43 11 -59t36 -16q35 0 115 45v-166q-76 -46 -180 -72zM629 457l-66 -26q-112 -42 -153 -78.5t-41 -92.5q0 -46 30 -73.5t64 -27.5q90 0 166 70v228z" />
    <glyph glyph-name="Cacute" unicode="&#x106;" horiz-adv-x="1579" 
d="M1458 426v-305q-262 -139 -549 -139q-372 0 -592.5 205.5t-220.5 506.5t232.5 511t607.5 210q299 0 506 -123v-311q-254 143 -481 143q-223 0 -364.5 -119.5t-141.5 -304.5q0 -186 139.5 -307t357.5 -121q108 0 208 28.5t298 125.5zM1230 1831l-338 -299h-152l152 299
h338z" />
    <glyph glyph-name="cacute" unicode="&#x107;" horiz-adv-x="1024" 
d="M948 258v-213q-174 -63 -319 -63q-249 0 -398 133.5t-149 353.5q0 215 150.5 354.5t383.5 139.5q150 0 318 -62v-221q-123 63 -242 63q-133 0 -213 -74t-80 -198q0 -125 78 -201.5t205 -76.5q94 0 266 65zM904 1384l-338 -299h-152l152 299h338z" />
    <glyph glyph-name="Ccaron" unicode="&#x10c;" horiz-adv-x="1579" 
d="M1458 426v-305q-262 -139 -549 -139q-372 0 -592.5 205.5t-220.5 506.5t232.5 511t607.5 210q299 0 506 -123v-311q-254 143 -481 143q-223 0 -364.5 -119.5t-141.5 -304.5q0 -186 139.5 -307t357.5 -121q108 0 208 28.5t298 125.5zM763 1516l-203 359h182l160 -178
l164 178h180l-203 -359h-280z" />
    <glyph glyph-name="ccaron" unicode="&#x10d;" horiz-adv-x="1024" 
d="M948 258v-213q-174 -63 -319 -63q-249 0 -398 133.5t-149 353.5q0 215 150.5 354.5t383.5 139.5q150 0 318 -62v-221q-123 63 -242 63q-133 0 -213 -74t-80 -198q0 -125 78 -201.5t205 -76.5q94 0 266 65zM437 1069l-203 359h182l160 -178l164 178h180l-203 -359h-280z
" />
    <glyph glyph-name="Dcaron" unicode="&#x10e;" horiz-adv-x="1642" 
d="M154 1397h616q357 0 564.5 -195.5t207.5 -505.5q0 -325 -210.5 -510.5t-600.5 -185.5h-577v1397zM502 1141v-885h227q221 0 338 121.5t117 320.5q0 206 -118.5 324.5t-340.5 118.5h-223zM608 1516l-203 359h182l160 -178l164 178h180l-203 -359h-280z" />
    <glyph glyph-name="dcaron" unicode="&#x10f;" horiz-adv-x="1429" 
d="M1073 1397v-1397h-297v76q-114 -94 -262 -94q-189 0 -315.5 140t-126.5 351q0 216 128.5 353t329.5 137q125 0 246 -60v494h297zM776 258v451q-81 55 -166 55q-112 0 -174.5 -78t-62.5 -219q0 -130 62 -208.5t165 -78.5q91 0 176 78zM1151 890q84 95 84 208q0 11 -2 27
q-93 42 -93 142q0 63 46.5 105t107.5 42q73 0 127 -57.5t54 -155.5q0 -132 -90 -240.5t-234 -126.5v56z" />
    <glyph glyph-name="Dslash" unicode="&#x110;" horiz-adv-x="1643" 
d="M154 605h-171v187h171v605h568q413 0 619.5 -204.5t206.5 -491.5q0 -301 -204.5 -501t-647.5 -200h-542v605zM506 605v-340h141q163 0 241.5 19t150.5 74.5t110 145t38 199.5q0 153 -68.5 257t-171.5 137.5t-264 33.5h-177v-339h306v-187h-306z" />
    <glyph glyph-name="dmacron" unicode="&#x111;" horiz-adv-x="1195" 
d="M1071 1244h113v-148h-113v-1096h-294v77q-113 -96 -263 -96q-177 0 -308 133.5t-131 358.5q0 221 129.5 355t325.5 134q130 0 247 -60v194h-180v148h180v153h294v-153zM777 257v451q-78 56 -165 56q-95 0 -164 -68t-69 -230q0 -141 66.5 -208t157.5 -67q90 0 174 66z" />
    <glyph glyph-name="Eogonek" unicode="&#x118;" horiz-adv-x="1300" 
d="M1190 0h-162q-25 -62 -25 -96q0 -48 30 -80.5t78 -32.5q23 0 78 19v-164q-74 -31 -158 -31q-98 0 -153 62.5t-55 168.5q0 86 39 154h-703v1396h1016v-260h-663v-282h633v-262h-633v-336h678v-256z" />
    <glyph glyph-name="eogonek" unicode="&#x119;" horiz-adv-x="1130" 
d="M885 24q-36 -76 -36 -119q0 -49 35.5 -77.5t80.5 -28.5q24 0 71 10v-163q-76 -32 -157 -32q-95 0 -153 61t-58 167q0 77 33 143q-34 -3 -68 -3q-157 0 -271.5 42.5t-200 161t-85.5 284.5q0 216 145.5 354t353.5 138q161 0 280.5 -82t162 -197t42.5 -258h-676
q5 -121 86 -190.5t224 -69.5q186 0 351 131v-190q-69 -49 -160 -82zM389 579h409q-9 91 -63.5 147.5t-141.5 56.5q-86 0 -140.5 -56.5t-63.5 -147.5z" />
    <glyph glyph-name="Ecaron" unicode="&#x11a;" horiz-adv-x="1300" 
d="M1190 256v-256h-1030v1397h1016v-256h-668v-293h637v-256h-637v-336h682zM510 1516l-203 359h182l160 -178l164 178h180l-203 -359h-280z" />
    <glyph glyph-name="ecaron" unicode="&#x11b;" horiz-adv-x="1130" 
d="M1044 293v-187q-170 -124 -421 -124q-249 0 -398 133.5t-149 353.5q0 216 140 355t357 139q218 0 357.5 -146.5t130.5 -392.5h-678q9 -128 91 -197t220 -69q167 0 350 135zM389 580h410q-24 206 -205 206q-183 0 -205 -206zM426 1069l-203 359h182l160 -178l164 178h180
l-203 -359h-280z" />
    <glyph glyph-name="Lacute" unicode="&#x139;" horiz-adv-x="1260" 
d="M1221 256v-256h-1065v1397h348v-1141h717zM1035 1831l-338 -299h-152l152 299h338z" />
    <glyph glyph-name="lacute" unicode="&#x13a;" horiz-adv-x="555" 
d="M426 1397v-1397h-297v1397h297zM668 1831l-338 -299h-152l152 299h338z" />
    <glyph glyph-name="Lcaron" unicode="&#x13d;" horiz-adv-x="1260" 
d="M1221 256v-256h-1065v1397h348v-1141h717zM521 1516l-203 359h182l160 -178l164 178h180l-203 -359h-280z" />
    <glyph glyph-name="lcaron" unicode="&#x13e;" horiz-adv-x="555" 
d="M426 1397v-1397h-297v1397h297zM517 890q84 95 84 208q0 11 -2 27q-93 42 -93 142q0 63 46.5 105t107.5 42q73 0 127 -57.5t54 -155.5q0 -132 -90 -240.5t-234 -126.5v56z" />
    <glyph glyph-name="Nacute" unicode="&#x143;" horiz-adv-x="1729" 
d="M1571 1397v-1397h-293l-772 895v-895h-348v1397h319l746 -854v854h348zM1212 1831l-338 -299h-152l152 299h338z" />
    <glyph glyph-name="nacute" unicode="&#x144;" horiz-adv-x="1194" 
d="M420 944v-135q131 154 307 154q147 0 245.5 -94t98.5 -269v-600h-297v575q0 189 -147 189q-105 0 -207 -156v-608h-297v944h297zM924 1384l-338 -299h-152l152 299h338z" />
    <glyph glyph-name="Ncaron" unicode="&#x147;" horiz-adv-x="1729" 
d="M1571 1397v-1397h-293l-772 895v-895h-348v1397h319l746 -854v854h348zM725 1516l-203 359h182l160 -178l164 178h180l-203 -359h-280z" />
    <glyph glyph-name="ncaron" unicode="&#x148;" horiz-adv-x="1194" 
d="M420 944v-135q131 154 307 154q147 0 245.5 -94t98.5 -269v-600h-297v575q0 189 -147 189q-105 0 -207 -156v-608h-297v944h297zM459 1069l-203 359h182l160 -178l164 178h180l-203 -359h-280z" />
    <glyph glyph-name="Odblacute" unicode="&#x150;" horiz-adv-x="1792" 
d="M897 1415q357 0 578 -215.5t221 -501.5q0 -290 -224 -503t-575 -213q-355 0 -578 212t-223 504q0 287 221.5 502t579.5 215zM897 272q198 0 319 117.5t121 308.5q0 192 -121 309t-319 117q-199 0 -320.5 -117t-121.5 -309q0 -191 121.5 -308.5t320.5 -117.5zM1396 1831
l-268 -299h-146l107 299h307zM1015 1831l-268 -299h-145l106 299h307z" />
    <glyph glyph-name="odblacute" unicode="&#x151;" horiz-adv-x="1217" 
d="M610 963q222 0 376.5 -130t154.5 -362q0 -233 -157 -361t-374 -128q-235 0 -384.5 136.5t-149.5 354.5q0 222 152.5 356t381.5 134zM610 158q213 0 213 321q0 307 -213 307q-102 0 -159.5 -81t-57.5 -232q0 -315 217 -315zM1112 1384l-268 -299h-146l107 299h307z
M731 1384l-268 -299h-145l106 299h307z" />
    <glyph glyph-name="Racute" unicode="&#x154;" horiz-adv-x="1386" 
d="M156 1397h624q203 0 330 -117.5t127 -284.5q0 -231 -240 -342q106 -47 200.5 -257l182.5 -396h-383q-34 69 -118.5 263t-145 249t-129.5 55h-100v-567h-348v1397zM504 1141v-318h184q88 0 139.5 41.5t51.5 118.5q0 158 -199 158h-176zM1024 1831l-338 -299h-152l152 299
h338z" />
    <glyph glyph-name="racute" unicode="&#x155;" horiz-adv-x="918" 
d="M428 944v-270h4q129 289 301 289q82 0 197 -86l-82 -263q-110 70 -176 70q-103 0 -173.5 -127.5t-70.5 -148.5v-408h-297v944h297zM856 1384l-338 -299h-152l152 299h338z" />
    <glyph glyph-name="Rcaron" unicode="&#x158;" horiz-adv-x="1386" 
d="M156 1397h624q203 0 330 -117.5t127 -284.5q0 -231 -240 -342q106 -47 200.5 -257l182.5 -396h-383q-34 69 -118.5 263t-145 249t-129.5 55h-100v-567h-348v1397zM504 1141v-318h184q88 0 139.5 41.5t51.5 118.5q0 158 -199 158h-176zM536 1516l-203 359h182l160 -178
l164 178h180l-203 -359h-280z" />
    <glyph glyph-name="rcaron" unicode="&#x159;" horiz-adv-x="918" 
d="M428 944v-270h4q129 289 301 289q82 0 197 -86l-82 -263q-110 70 -176 70q-103 0 -173.5 -127.5t-70.5 -148.5v-408h-297v944h297zM392 1069l-203 359h182l160 -178l164 178h180l-203 -359h-280z" />
    <glyph glyph-name="Sacute" unicode="&#x15a;" horiz-adv-x="1237" 
d="M1104 1307v-273q-278 125 -443 125q-94 0 -149.5 -31.5t-55.5 -83.5q0 -40 40 -76t195 -93t248 -106t160.5 -138t67.5 -225q0 -194 -147.5 -309t-388.5 -115q-260 0 -504 135v301q140 -94 248 -137t229 -43q205 0 205 129q0 44 -41 83t-197.5 95t-248 104t-158 137
t-66.5 228q0 180 145 290.5t388 110.5q224 0 473 -108zM973 1831l-338 -299h-152l152 299h338z" />
    <glyph glyph-name="sacute" unicode="&#x15b;" horiz-adv-x="874" 
d="M772 893v-211q-170 104 -315 104q-107 0 -107 -73q0 -19 22.5 -37.5t172.5 -78t212 -137.5t62 -171q0 -147 -100 -227t-285 -80q-190 0 -338 69v209q182 -80 305 -80q144 0 144 70q0 27 -26.5 51t-178.5 83t-208 130t-56 158q0 129 107.5 210t283.5 81q169 0 305 -70z
M775 1384l-338 -299h-152l152 299h338z" />
    <glyph glyph-name="Tcedilla" unicode="&#x162;" horiz-adv-x="1473" 
d="M1417 1397v-256h-506v-1141h-348v1141h-506v256h1360zM575 -598q84 95 84 208q0 11 -2 27q-93 42 -93 142q0 63 46.5 105t107.5 42q73 0 127 -57.5t54 -155.5q0 -132 -90 -240.5t-234 -126.5v56z" />
    <glyph glyph-name="tcedilla" unicode="&#x163;" horiz-adv-x="831" 
d="M801 944v-203h-344v-389q0 -70 38.5 -110.5t106.5 -40.5q92 0 199 55v-215q-142 -59 -275 -59q-174 0 -270 90t-96 264v405h-135v58l395 442h37v-297h344zM331 -598q84 95 84 208q0 11 -2 27q-93 42 -93 142q0 63 46.5 105t107.5 42q73 0 127 -57.5t54 -155.5
q0 -132 -90 -240.5t-234 -126.5v56z" />
    <glyph glyph-name="Tcaron" unicode="&#x164;" horiz-adv-x="1473" 
d="M1417 1397v-256h-506v-1141h-348v1141h-506v256h1360zM594 1516l-203 359h182l160 -178l164 178h180l-203 -359h-280z" />
    <glyph glyph-name="tcaron" unicode="&#x165;" horiz-adv-x="1152" 
d="M801 944v-203h-344v-389q0 -70 38.5 -110.5t106.5 -40.5q92 0 199 55v-215q-142 -59 -275 -59q-174 0 -270 90t-96 264v405h-135v58l395 442h37v-297h344zM881 890q84 95 84 208q0 11 -2 27q-93 42 -93 142q0 63 46.5 105t107.5 42q73 0 127 -57.5t54 -155.5
q0 -132 -90 -240.5t-234 -126.5v56z" />
    <glyph glyph-name="Uring" unicode="&#x16e;" horiz-adv-x="1686" 
d="M1192 1397h348v-793q0 -306 -181 -464t-517 -158q-332 0 -515.5 160t-183.5 460v795h349v-803q0 -146 95.5 -234t250.5 -88q161 0 257.5 90t96.5 256v779zM664 1696q0 86 61.5 146.5t147.5 60.5t146.5 -60.5t60.5 -146.5t-61 -147.5t-146 -61.5q-86 0 -147.5 62
t-61.5 147zM986 1696q0 46 -33.5 78.5t-79.5 32.5t-78.5 -32.5t-32.5 -78.5t32.5 -79t78.5 -33t79.5 33t33.5 79z" />
    <glyph glyph-name="uring" unicode="&#x16f;" horiz-adv-x="1194" 
d="M774 0v135q-131 -153 -305 -153q-154 0 -250 95t-96 263v604h297v-584q0 -180 149 -180q84 0 143.5 65.5t59.5 96.5v602h299v-944h-297zM391 1249q0 86 61.5 146.5t147.5 60.5t146.5 -60.5t60.5 -146.5t-61 -147.5t-146 -61.5q-86 0 -147.5 62t-61.5 147zM713 1249
q0 46 -33.5 78.5t-79.5 32.5t-78.5 -32.5t-32.5 -78.5t32.5 -79t78.5 -33t79.5 33t33.5 79z" />
    <glyph glyph-name="Udblacute" unicode="&#x170;" horiz-adv-x="1686" 
d="M1192 1397h348v-793q0 -306 -181 -464t-517 -158q-332 0 -515.5 160t-183.5 460v795h349v-803q0 -146 95.5 -234t250.5 -88q161 0 257.5 90t96.5 256v779zM1342 1831l-268 -299h-146l107 299h307zM961 1831l-268 -299h-145l106 299h307z" />
    <glyph glyph-name="udblacute" unicode="&#x171;" horiz-adv-x="1194" 
d="M774 0v135q-131 -153 -305 -153q-154 0 -250 95t-96 263v604h297v-584q0 -180 149 -180q84 0 143.5 65.5t59.5 96.5v602h299v-944h-297zM1103 1384l-268 -299h-146l107 299h307zM722 1384l-268 -299h-145l106 299h307z" />
    <glyph glyph-name="Zacute" unicode="&#x179;" horiz-adv-x="1430" 
d="M1364 1397l-762 -1141h762v-256h-1356l768 1141h-715v256h1303zM1032 1831l-338 -299h-152l152 299h338z" />
    <glyph glyph-name="zacute" unicode="&#x17a;" horiz-adv-x="1067" 
d="M86 944h922l-484 -741h484v-203h-969l485 741h-438v203zM849 1384l-338 -299h-152l152 299h338z" />
    <glyph glyph-name="Zdot" unicode="&#x17b;" horiz-adv-x="1430" 
d="M1364 1397l-762 -1141h762v-256h-1356l768 1141h-715v256h1303zM728 1858q69 0 116.5 -47.5t47.5 -115.5q0 -69 -47 -117t-117 -48q-68 0 -115.5 48t-47.5 117q0 68 47.5 115.5t115.5 47.5z" />
    <glyph glyph-name="zdot" unicode="&#x17c;" horiz-adv-x="1067" 
d="M86 944h922l-484 -741h484v-203h-969l485 741h-438v203zM557 1411q69 0 116.5 -47.5t47.5 -115.5q0 -69 -47 -117t-117 -48q-68 0 -115.5 48t-47.5 117q0 68 47.5 115.5t115.5 47.5z" />
    <glyph glyph-name="fraction1" unicode="&#x2044;" horiz-adv-x="448" 
d="M810 1416l-980 -1471h-192l980 1471h192z" />
    <glyph glyph-name="fi1" unicode="&#xf001;" horiz-adv-x="1217" 
d="M719 1163q-43 6 -74 6q-100 0 -141 -43.5t-41 -181.5h190v-203h-190v-741h-297v741h-125v203h125q0 471 420 471q75 0 133 -18v-234zM780 1255q0 66 48 113t114 47t113 -47t47 -113t-47 -113.5t-113 -47.5t-114 48t-48 113zM1090 944v-944h-297v944h297z" />
    <glyph glyph-name="fl1" unicode="&#xf002;" horiz-adv-x="1217" 
d="M653 944v-203h-190v-741h-297v741h-123v203h123q0 471 420 471q75 0 133 -18v-234q-43 6 -74 6q-100 0 -141 -43.5t-41 -181.5h190zM1090 1397v-1397h-297v1397h297z" />
    <glyph glyph-name="commaaccent" horiz-adv-x="683" 
d="M181 -598q84 95 84 208q0 11 -2 27q-93 42 -93 142q0 63 46.5 105t107.5 42q73 0 127 -57.5t54 -155.5q0 -132 -90 -240.5t-234 -126.5v56z" />
    <glyph glyph-name="Scommaaccent" unicode="&#x15e;" horiz-adv-x="1237" 
d="M1104 1307v-273q-278 125 -443 125q-94 0 -149.5 -31.5t-55.5 -83.5q0 -40 40 -76t195 -93t248 -106t160.5 -138t67.5 -225q0 -194 -147.5 -309t-388.5 -115q-260 0 -504 135v301q140 -94 248 -137t229 -43q205 0 205 129q0 44 -41 83t-197.5 95t-248 104t-158 137
t-66.5 228q0 180 145 290.5t388 110.5q224 0 473 -108zM481 -598q84 95 84 208q0 11 -2 27q-93 42 -93 142q0 63 46.5 105t107.5 42q73 0 127 -57.5t54 -155.5q0 -132 -90 -240.5t-234 -126.5v56z" />
    <glyph glyph-name="scommaaccent" unicode="&#x15f;" horiz-adv-x="874" 
d="M772 893v-211q-170 104 -315 104q-107 0 -107 -73q0 -19 22.5 -37.5t172.5 -78t212 -137.5t62 -171q0 -147 -100 -227t-285 -80q-190 0 -338 69v209q182 -80 305 -80q144 0 144 70q0 27 -26.5 51t-178.5 83t-208 130t-56 158q0 129 107.5 210t283.5 81q169 0 305 -70z
M311 -598q84 95 84 208q0 11 -2 27q-93 42 -93 142q0 63 46.5 105t107.5 42q73 0 127 -57.5t54 -155.5q0 -132 -90 -240.5t-234 -126.5v56z" />
    <glyph glyph-name="currency" unicode="&#xa4;" horiz-adv-x="1130" 
d="M780 313q-94 -57 -215 -57q-118 0 -213 55l-133 -133l-174 174l133 133q-55 90 -55 215q0 112 55 215l-133 134l170 170l131 -132q117 56 219 56q115 0 215 -56l133 134l174 -174l-133 -134q56 -98 56 -213q0 -109 -58 -219l133 -133l-170 -170zM770 700q0 84 -60 143.5
t-145 59.5q-84 0 -143.5 -59.5t-59.5 -143.5t59.5 -144t143.5 -60t144.5 60t60.5 144z" />
    </font>
</defs>
</svg>
