<?xml version="1.0" standalone="no"?>
<!DOCTYPE svg PUBLIC "-//W3C//DTD SVG 1.1//EN" "http://www.w3.org/Graphics/SVG/1.1/DTD/svg11.dtd" >
<svg>
<metadata>
Created by FontForge 20110222 at Wed Jul  2 15:16:32 2014
 By deploy user
</metadata>
<defs>
<font id="pictoweb" horiz-adv-x="833" >
  <font-face 
    font-family="pictoweb"
    font-weight="400"
    font-stretch="normal"
    units-per-em="1000"
    panose-1="0 0 0 0 0 0 0 0 0 0"
    ascent="750"
    descent="-250"
    x-height="725"
    cap-height="731"
    bbox="1 -0.25 1126 733"
    underline-thickness="50"
    underline-position="-50"
    unicode-range="U+0030-007A"
  />
<missing-glyph horiz-adv-x="500" 
 />
    <glyph glyph-name=".notdef" horiz-adv-x="500" 
 />
    <glyph glyph-name="a" unicode="a" 
d="M349 589q0 7 2 30t16 48t45.5 44.5t91.5 19.5h113v-128h-83q-12 0 -22.5 -10t-10.5 -20v-84h115q-2 -24 -4.5 -46.5t-4.5 -39.5q-3 -20 -5 -37h-101v-366h-152v366h-74v123h74v100v0z" />
    <glyph glyph-name="b" unicode="b" horiz-adv-x="915" 
d="M911 644q-38 -56 -92 -95v-24q0 -92 -34.5 -185t-101 -169t-164.5 -123.5t-225 -47.5q-78 0 -149.5 22t-133.5 61q11 -2 22 -2h22q65 0 123 20.5t106 57.5q-30 1 -57.5 10.5t-50 27t-39 40.5t-25.5 51q15 -4 35 -4q12 0 24.5 2t23.5 5q-32 6 -59 22.5t-46.5 40.5t-31 54
t-11.5 64v2q38 -21 84 -23q-38 25 -60 65t-22 88q0 51 25 93q69 -84 167 -135.5t213 -57.5q-5 23 -5 42q0 38 14.5 72t39.5 59t59 39.5t72 14.5q40 0 74.5 -15.5t60.5 -42.5q62 12 117 44q-11 -32 -31.5 -58.5t-49.5 -43.5q55 7 106 29z" />
    <glyph glyph-name="c" unicode="c" 
d="M726 528q9 -61 -3.5 -121.5t-43 -108t-78 -75t-108.5 -22.5q-17 1 -29.5 5.5t-23.5 11t-21.5 14t-23.5 15.5q-7 -38 -16 -74t-21.5 -68.5t-30.5 -59t-44 -45.5q-8 57 -4 107.5t14.5 97.5t23.5 92t22 90q-16 27 -15.5 63t13.5 66t37.5 46t57.5 3q27 -11 31.5 -34.5
t-2.5 -53.5t-18.5 -62.5t-16 -61.5t4.5 -50t43 -28q36 -7 64 9t47.5 46t30.5 69.5t11.5 79t-9.5 75t-32 58.5q-32 32 -71.5 44t-80 7t-78 -24.5t-64.5 -50.5t-41 -72t-6 -87q3 -17 11.5 -29t14.5 -24.5t6 -28t-13 -39.5q-62 14 -83.5 58.5t-19.5 109.5q2 53 24 97t56.5 77
t78 53t89.5 25q57 7 111 -3.5t97.5 -36t72 -66t36.5 -94.5z" />
    <glyph glyph-name="d" unicode="d" 
d="M83 549q0 44 14 74.5t35.5 50.5t46.5 31.5t46.5 17t35.5 7t15 1.5h191v-4q0 -8 -6.5 -13.5t-16 -8.5t-21 -4.5t-21.5 -2.5q-7 -2 -17 -3t-14 -3q36 -20 46 -50.5t10 -76.5q0 -52 -17 -81.5t-39 -49.5q-13 -12 -22 -22t-9 -23q0 -12 12 -25t29 -27q13 -12 28.5 -26.5
t28 -32.5t21 -40.5t8.5 -49.5q0 -114 -97 -161q-38 -19 -73 -23t-51 -4h-6h-4q-12 0 -43.5 3.5t-65 18.5t-59 45.5t-25.5 85.5q0 54 28 85t66 46.5t76 19.5t58 4h2q-12 15 -17 30t-7 27q-2 14 -1 26h-11q-15 0 -41 4t-52 20q-61 40 -61 134zM391 174q-2 42 -35 69.5
t-87 27.5q-8 0 -13 -1q-56 -3 -94 -38q-18 -17 -27.5 -37t-7.5 -41q3 -44 44 -67.5t99 -19.5q57 5 90.5 34t30.5 73zM341 589q-15 52 -39.5 71t-62.5 19q-4 0 -7.5 -0.5t-8.5 -1.5q-33 -9 -48 -51q-14 -38 -2 -88q11 -43 38.5 -71t59.5 -28q4 0 7.5 0.5t8.5 1.5
q17 5 30 19.5t21 34.5t9 44.5t-6 49.5zM788 445v-79h-125v-124h-79v124h-125v79h125v125h79v-125h125z" />
    <glyph glyph-name="e" unicode="e" 
d="M748 731q14 0 23.5 -9.5t9.5 -23.5v-665q0 -14 -9.5 -23.5t-23.5 -9.5h-665q-14 0 -23.5 9.5t-9.5 23.5v665q0 14 9.5 23.5t23.5 9.5h665zM416 493q-27 0 -50 -10t-40.5 -27.5t-27.5 -40.5t-10 -50q0 -26 10 -49.5t27.5 -40.5t40.5 -27t50 -10q26 0 49 10t40.5 27
t27.5 40.5t10 49.5q0 27 -10 50t-27.5 40.5t-40.5 27.5t-49 10zM690 411h-60q2 -11 3.5 -22.5t1.5 -23.5q0 -45 -17 -85t-47 -69.5t-70 -47t-85 -17.5t-85 17.5t-70 47t-47 69.5t-17 85q0 12 1.5 23.5t3.5 22.5h-60v-320h548v320zM690 639h-137v-137h137v137z" />
    <glyph glyph-name="f" unicode="f" 
d="M619 243q25 0 47 -9.5t38.5 -26t26 -38.5t9.5 -47q0 -26 -9.5 -48t-26 -38.5t-38.5 -26t-47 -9.5q-26 0 -48 9.5t-38.5 26t-26 38.5t-9.5 48v10t1 10l-211 127q-16 -12 -35 -19t-40 -7q-25 0 -47 9.5t-38.5 26t-26 39t-9.5 47.5t9.5 47.5t26 39t38.5 26t47 9.5
q42 0 75 -25l211 127q-1 5 -1 10v10q0 25 9.5 47.5t26 39t38.5 26t48 9.5q25 0 47 -9.5t38.5 -26t26 -39t9.5 -47.5t-9.5 -47.5t-26 -39t-38.5 -26t-47 -9.5q-21 0 -40 7t-35 18l-212 -127q2 -5 2 -10v-10v-10t-2 -10l212 -127q33 25 75 25z" />
    <glyph glyph-name="g" unicode="g" horiz-adv-x="877" 
d="M874 690v-690h-871v690l436 -426l435 426v0zM833 731l-394 -386l-394 386h788z" />
    <glyph glyph-name="h" unicode="h" 
d="M417 731q75 0 141.5 -29t116 -78.5t78.5 -116t29 -141.5q0 -76 -29 -142.5t-78.5 -116t-116 -78.5t-141.5 -29q-76 0 -142.5 29t-116 78.5t-78.5 116t-29 142.5q0 75 29 141.5t78.5 116t116 78.5t142.5 29zM499 79q76 23 131.5 80t75.5 135q-8 -2 -12 22q-2 19 -11 24.5
t-20.5 5.5t-24.5 -0.5t-24 6.5q-11 -8 -27.5 -4t-31 7t-23.5 -1.5t-4 -29.5q4 -8 13 -8t18.5 2.5t18.5 6t13.5 3.5t4 -6t-10.5 -22q-9 -17 -24.5 -42.5t-29.5 -53.5t-22.5 -54.5t-5.5 -45.5q0 -8 -1 -14t-3 -11zM253 556q-4 -12 -11 -23t-18 -18t-27 -8t-37 8
q-31 -51 -38 -109q22 -8 39 -17.5t13 -14.5q-10 -8 -26 -19.5t-27 -24.5q7 -56 32.5 -103.5t65 -83t90.5 -55.5t108 -20q21 0 44 3q-17 7 -34.5 20t-27.5 22q-7 19 -9.5 43t-6 47.5t-11.5 43t-26 28.5q-20 1 -37.5 3t-32.5 8.5t-26.5 19t-18.5 33.5q-5 15 -3 33t9.5 34.5
t20 28.5t29.5 15q24 15 41.5 9.5t33.5 -18t33 -26t40 -14.5q7 7 18.5 12.5t23.5 10.5t21 11t11 14q-15 3 -10 8.5t13 12.5t10.5 14t-17.5 13q-23 -2 -34 -19t1 -35q-22 -5 -35 7t-24 26t-23 23t-33 -3q-1 -12 -7.5 -17.5t-15 -7t-16.5 0.5t-11 5t0.5 7t18.5 6q7 3 3.5 9
t-9 11.5t-7.5 8.5t9 2q5 0 15.5 3t19.5 7t14 9t0 10q10 6 19.5 1l19 -10t18.5 -5t19 15q7 12 6.5 19t-6 9.5t-14.5 0.5t-18 -8q-5 6 -1.5 14t12.5 17t21 17.5t24 13.5q17 8 30 6q11 -12 25.5 -15t20.5 8q-59 30 -130 30q-50 0 -94 -15t-82 -42q9 -10 14.5 -27t-2.5 -23z" />
    <glyph glyph-name="i" unicode="i" 
d="M59 79l69 -69l-79 -10zM497 599l151 -151l-426 -426l-63 -8l-96 96l8 63zM772 610q8 -8 7.5 -19t-8.5 -19l-102 -103l-151 151l103 102q7 9 20 9q10 0 18 -8z" />
    <glyph glyph-name="j" unicode="j" 
d="M656 709q22 22 53 22t54 -22q22 -23 22 -54t-22 -54l-236 -236l236 -236q23 -22 23 -53t-23 -54q-23 -22 -54 -22t-53 22l-236 236l-236 -236q-23 -22 -54 -22t-54 22q-22 23 -22 54t22 53l236 236l-236 236q-22 23 -22 54t22 54q23 22 54 22t54 -22l236 -236l236 236v0z
" />
    <glyph glyph-name="k" unicode="k" 
d="M416 731q75 0 141.5 -29t116 -78.5t78.5 -116t29 -142.5q0 -75 -29 -141.5t-78.5 -116t-116 -78.5t-141.5 -29q-76 0 -142.5 29t-116 78.5t-78.5 116t-29 141.5q0 76 29 142.5t78.5 116t116 78.5t142.5 29zM416 68q61 0 115.5 23.5t94.5 63.5t63.5 94t23.5 116t-23.5 116
t-63.5 94.5t-94.5 64t-115.5 23.5q-62 0 -116 -23.5t-94.5 -64t-64 -94.5t-23.5 -116t23.5 -116t64 -94t94.5 -63.5t116 -23.5zM583 396q14 0 22.5 -8.5t8.5 -22.5q0 -13 -8.5 -22t-22.5 -9h-136v-136q0 -14 -9 -22.5t-22 -8.5q-14 0 -22.5 8.5t-8.5 22.5v136h-137
q-13 0 -22 9t-9 22q0 14 9 22.5t22 8.5h137v137q0 13 8.5 22t22.5 9q13 0 22 -9t9 -22v-137h136z" />
    <glyph glyph-name="l" unicode="l" 
d="M416 731q76 0 142.5 -29t116 -78.5t78.5 -116t29 -142.5q0 -75 -29 -141.5t-78.5 -116t-116 -78.5t-142.5 -29q-75 0 -141.5 29t-116 78.5t-78.5 116t-29 141.5q0 76 29 142.5t78.5 116t116 78.5t141.5 29zM416 68q62 0 116 23.5t94.5 63.5t64 94t23.5 116t-23.5 116
t-64 94.5t-94.5 64t-116 23.5t-116 -23.5t-94 -64t-63.5 -94.5t-23.5 -116t23.5 -116t63.5 -94t94 -63.5t116 -23.5zM584 396q13 0 22 -8.5t9 -22.5q0 -13 -9 -22t-22 -9h-136h-63h-136q-13 0 -22 9t-9 22q0 14 9 22.5t22 8.5h136h63h136z" />
    <glyph glyph-name="m" unicode="m" 
d="M765 117q20 -20 20 -48.5t-20 -48.5q-10 -10 -22.5 -15t-25.5 -5t-26 5t-23 15l-161 161q-34 -21 -73 -33t-82 -12q-62 0 -116 23.5t-94 63.5t-63.5 94t-23.5 116t23.5 116t63.5 94.5t94 64t116 23.5q61 0 115.5 -23.5t94.5 -64t63.5 -94.5t23.5 -116q0 -43 -11.5 -82
t-32.5 -73zM352 227q43 0 80.5 16.5t65.5 44.5t44 65.5t16 79.5q0 43 -16 80.5t-44 65.5t-65.5 44t-80.5 16t-80.5 -16t-65.5 -44t-44 -65.5t-16 -80.5q0 -42 16 -79.5t44 -65.5t65.5 -44.5t80.5 -16.5z" />
    <glyph glyph-name="n" unicode="n" 
d="M732 302q17 0 29 -11.5t12 -28.5v-222q0 -17 -12 -28.5t-29 -11.5h-629q-17 0 -29.5 11.5t-12.5 28.5v222q0 17 12.5 28.5t29.5 11.5t29 -11.5t12 -28.5v-179h547v179q0 17 12 28.5t29 11.5zM389 210l-165 166q-13 12 -13 28t13 29q12 13 28 13t29 -13l96 -95v352
q0 17 12 29t29 12t28.5 -12t11.5 -29v-352l95 95q13 13 29.5 13t29.5 -13q12 -13 12 -29t-12 -28l-166 -166q-12 -12 -28 -12q-15 0 -29 12z" />
    <glyph glyph-name="o" unicode="o" 
d="M713 366q0 -35 19.5 -61.5t51.5 -45.5q-13 -40 -30 -73q-36 10 -65 -2t-53 -36q-48 -47 -30 -118q-35 -18 -73 -30q-18 32 -49 51t-66 19q-34 0 -65 -19t-50 -51q-38 12 -72 30q18 70 -30 118t-118 30q-20 35 -30 73q32 18 51 49t19 66q0 34 -19 60.5t-51 45.5
q11 39 30 73q35 -10 64.5 2t53.5 36q48 48 30 118q34 18 72 30q19 -32 50 -51t65 -19q35 0 66 19t49 51q38 -12 73 -30q-18 -71 30 -118q24 -24 53 -36t65 -2q17 -33 30 -73q-32 -19 -51.5 -45.5t-19.5 -60.5zM418 207q33 0 62 12.5t50.5 34t34 50.5t12.5 62t-12.5 61.5
t-34 50t-50.5 34t-62 12.5t-62 -12.5t-50.5 -34t-34 -50t-12.5 -61.5t12.5 -62t34.5 -50.5t50.5 -34t61.5 -12.5z" />
    <glyph glyph-name="p" unicode="p" 
d="M801 3l-155 -1q1 11 1.5 22t0.5 22q0 110 -42 207t-114.5 169.5t-169.5 114.5t-207 42q-44 0 -90 -8v156q43 6 90 6q95 0 182.5 -24.5t164 -69.5t139 -107.5t107.5 -139t69.5 -164t24.5 -182.5q0 -11 -0.5 -21.5t-0.5 -21.5zM411 19h130q2 14 3 31.5t1 33.5q0 82 -31 154
t-84.5 125.5t-125.5 84.5t-154 31q-53 0 -99 -12v-115q49 12 96 5.5t88.5 -27.5t76.5 -54t58.5 -74t34.5 -88t6 -95zM48 4l-1 254q46 0 92.5 -17.5t83.5 -48t60 -71.5t23 -88q0 -8 -0.5 -15.5t-1.5 -15.5z" />
    <glyph glyph-name="q" unicode="q" 
d="M199 339q-11 11 -11 26.5t11 26.5l328 328q11 11 26.5 11t26.5 -11l26 -26q11 -11 11 -26.5t-11 -26.5l-275 -275l275 -276q11 -11 11 -26t-11 -26l-26 -27q-11 -11 -26.5 -11t-26.5 11l-328 328v0z" />
    <glyph glyph-name="r" unicode="r" 
d="M628 392q11 -11 11 -26.5t-11 -26.5l-328 -328q-11 -11 -26.5 -11t-26.5 11l-26 27q-11 11 -11 26t11 26l275 276l-275 275q-11 11 -11 26.5t11 26.5l26 26q11 11 26.5 11t26.5 -11l328 -328v0z" />
    <glyph glyph-name="s" unicode="s" 
d="M411 731q48 0 89.5 -18t72.5 -49t49 -72.5t18 -89.5q0 -55 -25 -103l-204 -399q-58 112 -103 201q-19 38 -37.5 74t-33 64.5t-23.5 46.5l-9 18q-22 47 -22 98q0 48 18 89.5t49 72.5t72.5 49t88.5 18zM411 365q28 0 53 11t44 29.5t29.5 43.5t10.5 53t-10.5 53.5t-29.5 44
t-44 29.5t-53 11t-53 -11t-43.5 -29.5t-29.5 -44t-11 -53.5t11 -53t29.5 -43.5t43.5 -29.5t53 -11z" />
    <glyph glyph-name="t" unicode="t" 
d="M73 654q-16 0 -27.5 11t-11.5 28q0 16 11.5 27t27.5 11h72q13 0 23 -7.5t14 -19.5l15 -48h539q29 0 49 -23q18 -23 12 -52l-45 -203q-5 -25 -25.5 -41.5t-46.5 -16.5h-378l31 -97h336q17 0 28 -11t11 -27q0 -17 -11 -28t-28 -11h-365q-13 0 -23 7.5t-14 19.5l-151 481
h-43zM689 449h-427l17 -52h2h396zM219 578l17 -52h1h469l11 52h-496h-2zM356 110q23 0 38.5 -16t15.5 -39t-15.5 -39t-38.5 -16t-39 16t-16 39t16 39t39 16zM589 110q23 0 39 -16t16 -39t-16 -39t-39 -16t-39 16t-16 39t16 39t39 16z" />
    <glyph glyph-name="u" unicode="u" 
d="M416 731q76 0 142.5 -29t116 -78.5t78.5 -116t29 -141.5q0 -76 -29 -142.5t-78.5 -116t-116 -78.5t-142.5 -29q-75 0 -141.5 29t-116 78.5t-78.5 116t-29 142.5q0 75 29 141.5t78.5 116t116 78.5t141.5 29zM416 68q61 0 115.5 23.5t95 64t64 94.5t23.5 116
q0 61 -23.5 115.5t-64 94.5t-95 63.5t-115.5 23.5q-62 0 -116 -23.5t-94 -63.5t-63.5 -94.5t-23.5 -115.5q0 -62 23.5 -116t63.5 -94.5t94 -64t116 -23.5zM553 461q0 -27 -13.5 -47t-30.5 -34.5t-34 -25t-23 -20.5q-5 -8 -8 -16t-6.5 -15t-10.5 -11.5t-21 -4.5
q-18 0 -27 11.5t-9 25.5q0 25 15.5 42t33.5 31t33.5 28.5t15.5 35.5q0 23 -14 35.5t-40 12.5q-27 0 -37.5 -11.5t-17.5 -25.5t-14.5 -25.5t-28.5 -11.5q-14 0 -25 8.5t-11 25.5q0 21 11 39.5t29 32.5t41.5 22.5t49.5 8.5q27 0 52.5 -6.5t45.5 -20t32 -34.5t12 -50zM408 251
q19 0 32.5 -13.5t13.5 -32.5t-13.5 -32.5t-32.5 -13.5t-32.5 13.5t-13.5 32.5t13.5 32.5t32.5 13.5z" />
    <glyph glyph-name="v" unicode="v" 
d="M72 125q26 0 44 -18t18 -43q0 -26 -18 -45t-44 -19q-25 0 -44 19t-19 45q0 25 19 43t44 18zM72 421q26 0 44 -18t18 -43t-18 -43.5t-44 -18.5q-25 0 -44 18.5t-19 43.5t19 43t44 18zM297 606q-23 0 -40.5 16.5t-17.5 39.5q0 24 17.5 41t40.5 17h469q24 0 41 -17t17 -41
q0 -23 -17 -39.5t-41 -16.5h-469zM72 725q26 0 44 -18.5t18 -44.5q0 -25 -18 -43t-44 -18q-25 0 -44 18t-19 43q0 26 19 44.5t44 18.5zM766 418q24 0 41 -17t17 -41t-17 -41t-41 -17h-469q-23 0 -40.5 17t-17.5 41t17.5 41t40.5 17h469zM766 116q24 0 41 -17.5t17 -40.5
q0 -24 -17 -41t-41 -17h-469q-23 0 -40.5 17t-17.5 41q0 23 17.5 40.5t40.5 17.5h469z" />
    <glyph glyph-name="w" unicode="w" 
d="M207 731q22 0 37 -15.5t15 -37.5v-104q0 -22 -15 -37t-37 -15h-105q-22 0 -37 15t-15 37v104q0 22 15 37.5t37 15.5h105zM468 731q22 0 37 -15.5t15 -37.5v-104q0 -22 -15 -37t-37 -15h-105q-21 0 -36.5 15t-15.5 37v104q0 22 15.5 37.5t36.5 15.5h105zM729 731
q22 0 37 -15.5t15 -37.5v-104q0 -22 -15 -37t-37 -15h-105q-21 0 -36.5 15t-15.5 37v104q0 22 15.5 37.5t36.5 15.5h105zM207 470q22 0 37 -15.5t15 -37.5v-104q0 -22 -15 -37t-37 -15h-105q-22 0 -37 15t-15 37v104q0 22 15 37.5t37 15.5h105zM468 470q22 0 37 -15.5
t15 -37.5v-104q0 -22 -15 -37t-37 -15h-105q-21 0 -36.5 15t-15.5 37v104q0 22 15.5 37.5t36.5 15.5h105zM729 470q22 0 37 -15.5t15 -37.5v-104q0 -22 -15 -37t-37 -15h-105q-21 0 -36.5 15t-15.5 37v104q0 22 15.5 37.5t36.5 15.5h105zM207 209q22 0 37 -15.5t15 -37.5
v-104q0 -22 -15 -37t-37 -15h-105q-22 0 -37 15t-15 37v104q0 22 15 37.5t37 15.5h105zM468 209q22 0 37 -15.5t15 -37.5v-104q0 -22 -15 -37t-37 -15h-105q-21 0 -36.5 15t-15.5 37v104q0 22 15.5 37.5t36.5 15.5h105zM729 209q22 0 37 -15.5t15 -37.5v-104q0 -22 -15 -37
t-37 -15h-105q-21 0 -36.5 15t-15.5 37v104q0 22 15.5 37.5t36.5 15.5h105z" />
    <glyph glyph-name="A" unicode="A" 
d="M586 596q80 -42 126 -116t46 -164q0 -65 -25 -122.5t-68 -100.5t-100.5 -68t-122.5 -25q-66 0 -123.5 25t-100 68t-67.5 100.5t-25 122.5q0 90 45.5 164t125.5 116v-93q-42 -32 -66 -79q-26 -49 -26 -108q0 -48 17.5 -90.5t51.5 -76.5t77 -52t91 -18t90.5 18t76.5 52
t52 76.5t18 90.5q0 56 -26 108q-12 23 -29 43t-38 36v93zM442 363q-20 0 -33 13t-13 33v276q0 20 13 33t33 13q19 0 32.5 -13t13.5 -33v-276q0 -20 -13.5 -33t-32.5 -13z" />
    <glyph glyph-name="x" unicode="x" 
d="M593 270l62 -270l-238 142l-237 -142l62 270l-209 181l276 25l108 255l109 -255l276 -25l-209 -181v0z" />
    <glyph glyph-name="y" unicode="y" horiz-adv-x="869" 
d="M115 0q-23 0 -43.5 9t-35.5 24.5t-24 36t-9 43.5v393q0 23 9 43.5t24 36t35.5 24.5t43.5 9h267l-140 -113h-127v-393h498v112l113 90v-202q0 -23 -9 -43.5t-24.5 -36t-36 -24.5t-43.5 -9h-498zM581 281v112q-71 3 -118 -10t-82.5 -37t-65 -55.5t-65.5 -66.5
q0 82 23.5 154t67 125.5t104.5 84.5t136 32v111l281 -225z" />
    <glyph glyph-name="z" unicode="z" 
d="M795 390q13 -33 12 -81.5t-8.5 -95.5t-17 -83t-11.5 -44q0 -1 -4.5 -12t-16 -25t-30.5 -26.5t-49 -16.5q-24 -4 -60 -5.5t-72 0t-66.5 5t-42.5 10.5l-34 21l-46 27q-10 4 -68 1v-21h-256v379h256v-4q26 13 54 33.5t45 47.5q23 36 40 78t29 75q14 40 23.5 57.5t26.5 19.5
q44 5 73 -17.5t37 -67.5q3 -23 3 -44q0 -39 -8.5 -70.5t-18.5 -53.5h77q97 0 133 -87zM722 99q6 21 14 57.5t14 76.5t7 77.5t-8 60.5q-23 56 -87 56h-164l25 39l6.5 10.5t13.5 29t13 43t6 52.5q0 17 -3 35q-7 45 -44 45q-2 -4 -5 -11t-6 -15q-4 -9 -8 -19q-12 -35 -30 -79
t-44 -85q-14 -21 -31.5 -38t-37 -30.5t-38.5 -23.5t-34 -16v-249q31 1 52.5 0.5t31.5 -4.5l57 -32l31 -19q7 -3 31 -6t55 -4t64.5 0t58.5 5q18 3 29 10t18 14.5t10 13.5z" />
    <glyph glyph-name="zero" unicode="0" 
d="M832 618v-618h-718v618h718zM759 72v474h-573v-474h573zM622 458l99 -298h-496l148 199l100 -100zM274 359q-20 0 -34.5 14.5t-14.5 34.5q0 21 14.5 35.5t34.5 14.5q21 0 35.5 -14.5t14.5 -35.5q0 -20 -14.5 -34.5t-35.5 -14.5zM719 658h-645v-546h-73v619h718v-73z" />
    <glyph glyph-name="one" unicode="1" 
d="M713 665q29 0 50 -21t21 -50v-523q0 -29 -21 -50t-50 -21h-589q-29 0 -50 21t-21 50v523q0 29 21 50t50 21h84v32q0 14 9.5 24t23.5 10t24 -10t10 -24v-32h110v32q0 14 9.5 24t23.5 10t24 -10t10 -24v-32h110v32q0 14 9.5 24t23.5 10t24 -10t10 -24v-32h84zM120 71
q0 -4 4 -4h589q3 0 3 4v523q0 3 -3 3h-84v-32q0 -14 -10 -24t-24 -10t-23.5 10t-9.5 24v32h-110v-32q0 -14 -10 -24t-24 -10t-23.5 10t-9.5 24v32h-110v-32q0 -14 -10 -24t-24 -10t-23.5 10t-9.5 24v32h-84q-4 0 -4 -3v-523zM308 388h-89v66h89v-66zM308 277h-89v66h89v-66z
M308 166h-89v67h89v-67zM463 166h-89v67h89v-67zM463 277h-89v66h89v-66zM463 388h-89v66h89v-66zM617 166h-88v67h88v-67zM617 277h-88v66h88v-66zM617 388h-88v66h88v-66z" />
    <glyph glyph-name="two" unicode="2" 
d="M606 731q48 0 89 -18.5t71 -50t46.5 -74t16.5 -91.5q0 -40 -17.5 -82.5t-46.5 -85t-66 -83t-76 -77.5q-91 -86 -206 -169q-115 81 -206 165q-39 36 -76 76.5t-66 83.5t-46.5 86.5t-17.5 85.5q0 60 16.5 104.5t46 73t70.5 42.5t90 14q58 0 107.5 -26t81.5 -70q32 44 81 70
t108 26z" />
    <glyph glyph-name="three" unicode="3" 
d="M654 731q27 0 51 -10.5t41.5 -28t28 -41.5t10.5 -51v-335q0 -27 -10.5 -51t-28 -41.5t-41.5 -28t-51 -10.5h-7l-89 -134l-89 134h-293q-27 0 -51 10.5t-42 28t-28.5 41.5t-10.5 51v335q0 27 10.5 51t28.5 41.5t42 28t51 10.5h478zM713 600q0 25 -17 42.5t-42 17.5h-478
q-25 0 -42.5 -17.5t-17.5 -42.5v-335q0 -25 17.5 -42.5t42.5 -17.5h312l70 -105l70 105h26q25 0 42 17.5t17 42.5v335zM224 456h382v-47h-382v47zM224 552h382v-48h-382v48zM224 361h191v-48h-191v48z" />
    <glyph glyph-name="four" unicode="4" 
d="M632 185q76 -28 121 -54t45 -46v-85h-382h-381v85q0 20 45 46t120 54q37 13 62.5 26.5t41 29t22 34t6.5 43.5q0 15 -5 22t-12 15.5t-14.5 21.5t-12.5 40q-2 11 -7.5 13.5t-11.5 6.5t-11 13.5t-7 35.5q0 18 7 27q3 4 7 7l-4 24q-2 11 -3.5 23.5t-2.5 24.5q-2 15 3.5 38.5
t23 46t50 38.5t84.5 16t84.5 -16t50 -38.5t23 -46t4.5 -38.5q-2 -12 -3.5 -24.5t-3.5 -23.5l-4 -24l7 -7q3 -4 5.5 -10.5t2.5 -16.5q-2 -26 -7.5 -35.5t-11.5 -13.5t-11.5 -6.5t-7.5 -13.5q-5 -27 -12.5 -40t-14.5 -21.5t-12 -15.5t-5 -22q0 -25 6.5 -43.5t22 -34t40.5 -29
t63 -26.5z" />
    <glyph glyph-name="five" unicode="5" 
d="M386 181q8 -8 8 -17.5t-8 -17.5l-34 -35q-8 -7 -17.5 -7t-17.5 7l-52 52l-34 -34l52 -52q7 -8 7 -17.5t-7 -17.5l-35 -34q-7 -8 -17 -8t-17 8l-52 52q-14 -14 -34.5 -14t-34.5 14t-14 34.5t14 34.5l351 351q-26 49 -19.5 104.5t48.5 97.5q25 25 56.5 37t64.5 12t64.5 -12
t56.5 -37t37 -56.5t12 -64.5t-12 -64.5t-37 -56.5q-42 -42 -97.5 -48.5t-104.5 19.5l-178 -179zM542 612q-22 -21 -22 -51.5t22 -51.5q21 -22 51.5 -22t52.5 22q21 21 21 51.5t-21 51.5q-22 22 -52.5 22t-51.5 -22z" />
    <glyph glyph-name="six" unicode="6" 
d="M287 0q-29 0 -50 21t-21 50v497h462v-497q0 -29 -21 -50t-50 -21h-320zM558 93q0 -10 6.5 -17t17.5 -7q10 0 17 7t7 17v385q0 10 -7 17t-17 7q-11 0 -17.5 -7t-6.5 -17v-385zM424 93q0 -10 6.5 -17t17.5 -7q10 0 17 7t7 17v385q0 10 -7 17t-17 7q-11 0 -17.5 -7t-6.5 -17
v-385zM290 93q0 -10 6.5 -17t17.5 -7q10 0 17 7t7 17v385q0 10 -7 17t-17 7q-11 0 -17.5 -7t-6.5 -17v-385zM632 693q36 0 61.5 -25t25.5 -61h-544q0 36 25.5 61t61.5 25h97q2 17 13.5 27.5t28.5 10.5h92q17 0 28.5 -10.5t13.5 -27.5h97z" />
    <glyph glyph-name="seven" unicode="7" 
d="M816 44v-2v-2q0 -17 -12.5 -28.5t-29.5 -11.5h-180q-18 0 -30.5 11.5t-12.5 28.5t12.5 28.5t30.5 11.5h86l-160 159q-11 12 -11 28.5t11 27.5q12 12 28.5 12t28.5 -12l160 -160v87q0 17 11.5 29t28.5 12t28 -12t11 -29v-178zM301 295q11 12 27.5 12t28.5 -12
q11 -11 11 -27.5t-11 -28.5l-160 -159h87q17 0 29.5 -11.5t12.5 -28.5t-12.5 -28.5t-29.5 -11.5h-181q-17 0 -29.5 11.5t-12.5 28.5v2v2v178q0 17 11.5 29t28.5 12t28 -12t11 -29v-87zM577 436q-12 -11 -28.5 -11t-28.5 11q-11 12 -11 28.5t11 27.5l160 160h-86
q-18 0 -30.5 11.5t-12.5 27.5q0 17 12.5 28.5t30.5 11.5h180q17 0 29.5 -11.5t12.5 -28.5v-1v-2v-178q0 -17 -11 -29.5t-28 -12.5t-28.5 12.5t-11.5 29.5v86zM357 492q11 -11 11 -27.5t-11 -28.5q-12 -11 -28.5 -11t-27.5 11l-161 160v-86q0 -17 -11 -29.5t-28 -12.5
t-28.5 12.5t-11.5 29.5v178v2v1q0 17 12.5 28.5t29.5 11.5h180q18 0 30.5 -11.5t12.5 -28.5q0 -16 -12.5 -27.5t-30.5 -11.5h-86z" />
    <glyph glyph-name="eight" unicode="8" 
d="M838 154q3 -17 -10 -31l-103 -102q-9 -9 -19 -13q-10 -5 -22 -7h-1q-1 0 -1.5 -0.5t-1.5 -0.5h-10q-8 0 -19.5 1.5t-28.5 3.5t-37 8.5t-44 16.5q-44 19 -108 59q-61 40 -128 108q-55 55 -90 103q-36 48 -57 90q-23 40 -33 75q-11 35 -14 58q-2 12 -3 21.5t-1 16.5
q1 8 1 11.5v4.5q1 5 3 10.5t4 11.5q7 12 13 18l103 103q13 11 25 11q10 0 18 -6q4 -3 7 -6.5t6 -7.5l83 -157q7 -13 4 -28q-3 -14 -13 -24l-38 -38q-1 -1 -3 -5q-1 -3 -1 -6q3 -14 14 -37q9 -20 28 -46t55 -61q37 -37 62 -55q14 -11 25 -18t21 -12q9 -5 15.5 -7t11.5 -4
l10 -2q1 0 2 0.5t3 0.5q3 1 5 3l44 45q15 12 33 12q14 0 21 -4h1l149 -88q16 -10 19 -26z" />
    <glyph glyph-name="nine" unicode="9" 
d="M611 731q22 0 37.5 -15.5t15.5 -37.5v-625q0 -22 -15.5 -37.5t-37.5 -15.5h-308q-22 0 -37.5 15.5t-15.5 37.5v625q0 22 15.5 37.5t37.5 15.5h308zM381 691q-3 0 -5 -6t-2 -14t2 -14t5 -6h152q3 0 5 6t2 14t-2 14t-5 6h-152zM457 39q20 0 33.5 14t13.5 34t-13.5 33.5
t-33.5 13.5t-34 -13.5t-14 -33.5t14 -34t34 -14zM624 611h-334v-442h334v442z" />
    <glyph glyph-name="B" unicode="B" 
d="M799 638q30 -32 30 -74t-30 -74l-451 -450q-39 -40 -103 -40l-108 14q-17 0 -34 7t-30 19q-13 14 -20 31t-6 36l-16 103q0 65 39 103l409 410q9 8 22 8t21 -8q9 -9 9 -21.5t-9 -21.5l-410 -410q-21 -21 -21 -60l17 -104q-2 -14 8 -23q10 -8 22 -8h1l106 -14q39 0 60 21
l451 451q13 13 13 31t-13 31l-62 63q-13 12 -31.5 12.5t-30.5 -12.5l-330 -330q-2 -2 -4.5 -6t-2.5 -14v-49h1h48q9 0 13.5 2t6.5 5l327 327q8 8 21 8t22 -8q8 -10 8 -22q1 -10 -8 -21l-327 -327q-25 -25 -63 -25h-47h-2q-23 0 -43 18q-9 9 -13.5 21t-4.5 24v47q0 36 25 63
l330 330q30 30 74 30t74 -30l3 -4l59 -59v0z" />
    <glyph glyph-name="C" unicode="C" 
d="M645 409q0 -47 -47 -47h-6.5t-5.5 1v88q3 1 15 1q44 0 44 -43zM497 452q25 0 25 -21q0 -11 -7.5 -16.5t-19.5 -5.5q-8 0 -11 1v41q2 1 13 1zM799 503v-192h-397v192h397zM544 432q0 18 -12 28q-13 10 -36 10q-22 0 -35 -3v-121h23v46q3 -1 11 -1q24 0 38 14q11 9 11 27z
M669 410q0 30 -20 45q-17 15 -50 15q-20 0 -36 -3v-121q6 -1 13.5 -1.5t17.5 -0.5q36 0 55 17q20 18 20 49zM711 416v34h48v19h-71v-123h23v52h45v18h-45zM684 289h48v-150q0 -12 -8 -18l-128 -115q-6 -6 -16 -6h-368q-10 0 -17 7t-7 17v683q0 10 7 17t17 7h496q10 0 17 -7
t7 -17v-180h-48v156h-448v-635h335l1 1v103h112v137z" />
    <glyph glyph-name="D" unicode="D" 
d="M275 594h-46v91q0 19 13.5 32.5t32.5 13.5h366q19 0 32 -13.5t13 -32.5v-91h-45v91h-366v-91zM778 548q19 0 32 -13t13 -33v-228q0 -19 -13 -32.5t-32 -13.5h-92v-182q0 -20 -13 -33t-32 -13h-366q-19 0 -32.5 13t-13.5 33v182h-91q-19 0 -32.5 13.5t-13.5 32.5v228
q0 20 13.5 33t32.5 13h640zM641 365h-366v-319h366v319zM732 411q19 0 32.5 13t13.5 33q0 19 -13.5 32t-32.5 13t-32.5 -13t-13.5 -32q0 -20 13.5 -33t32.5 -13zM321 320h182v-46h-182v46zM321 228h274v-45h-274v45zM321 137h274v-46h-274v46z" />
    <glyph glyph-name="E" unicode="E" 
d="M489 353h-1q-2 -2 -5 -2l-107 -101l-3 -143l-33 -33q-1 -1 -6 -1q-6 0 -9 3q-2 3 -4 9l-20 79q-1 4 -4 5q-2 2 -5 2q-7 0 -13 -6q-6 -7 -8 -9q-14 -11 -32 -11t-18 17q0 8 3 17q3 7 8 14l13 15q0 1 1 1q0 1 0.5 1t0.5 1q2 2 2 4q0 3 -3 6q-2 2 -6 4l-82 19q-8 3 -8 13v1
v4l32 31q2 2 4 3q1 0 1 0.5t1 0.5h1h133q1 0 1.5 0.5t2.5 0.5l3 3l99 105q1 1 1 6q0 7 -6 10l-340 111q-4 2 -4 4v6v4q0 3 1 4l27 26l3 3q2 1 5 1h475l116 123q11 12 31 20q17 7 36 7q11 0 21 -5t13 -19v-6v-6q0 -16 -4 -32t-16 -28l-126 -120q-2 -2 -2 -4t-0.5 -3t-0.5 -2
v-454v-9q-1 -4 -1 -8q0 -1 -0.5 -1.5t-0.5 -1.5q-2 -3 -3 -3l-24 -25q-5 -4 -9 -4q-7 0 -10 8l-110 335q-1 2 -1.5 3.5t-2.5 3.5q-3 3 -7 3z" />
    <glyph glyph-name="F" unicode="F" 
d="M650 17h-385l-12 -17h-69l123 182q-34 5 -58 32t-24 64v357q0 39 28 67q29 29 70 29h270q40 0 69 -29q28 -27 28 -67v-357q0 -37 -23 -63q-24 -27 -59 -33l123 -182h-69zM621 242q13 13 13 32q0 17 -13 32q-12 13 -32 13q-19 0 -32 -13q-12 -14 -12 -32q0 -20 12 -32
q13 -13 32 -13q20 0 32 13zM285 512q0 -20 12 -33q7 -6 14.5 -9.5t18.5 -3.5h256q18 0 33 13q13 13 13 33v114q0 20 -13 32q-13 13 -33 13h-256q-20 0 -33 -13q-12 -12 -12 -32v-114zM294 242q13 -13 33 -13q19 0 31 13q13 12 13 32q0 19 -13 32q-12 13 -31 13
q-20 0 -33 -13q-12 -14 -12 -32q0 -20 12 -32zM611 76l-32 48h-242l-32 -48h306z" />
    <glyph glyph-name="G" unicode="G" horiz-adv-x="1132" 
d="M1083 208q14 0 24.5 2t18.5 5v-79q-8 -3 -18.5 -5t-24.5 -2q-27 0 -63.5 8.5t-65.5 31.5q-15 -11 -32 -19t-34 -12.5t-34 -6.5t-30 -2q-27 0 -63.5 8.5t-65.5 31.5h-2q-14 -11 -31 -19t-34 -12.5t-33.5 -6.5t-29.5 -2q-27 0 -63.5 8.5t-65.5 31.5h-2q-29 -23 -65.5 -31.5
t-63.5 -8.5t-63 8.5t-65 31.5h-2q-20 -17 -47 -28.5t-82 -11.5q-13 0 -23.5 0.5t-19.5 1.5v80q19 -3 43 -3h2q2 22 17 54.5t42.5 65t68 60.5t92.5 43q24 7 72.5 19.5t111.5 28.5t135.5 34t144.5 36q169 42 367 92q14 3 23 -6t-3 -31q-26 -46 -58 -102t-67.5 -111t-73.5 -103
t-75 -79q26 2 55.5 11t53.5 28q29 -23 65.5 -31.5t63.5 -8.5zM656 433q-17 -4 -27 -19t-6 -32q4 -18 19 -27.5t32 -6.5q17 4 27 19t7 33q-4 17 -19 27t-33 6zM487 398q-17 -4 -27 -19t-6 -33q4 -17 18.5 -27t32.5 -6q17 4 27 19t6 32t-19 27.5t-32 6.5zM318 362
q-18 -4 -27.5 -19t-5.5 -32q3 -17 18 -27t33 -6q17 4 27 18.5t6 32.5q-4 17 -19 27t-32 6zM954 118q29 -23 65.5 -31.5t63.5 -8.5q14 0 24.5 2t18.5 5v-79q-17 -6 -43 -6q-27 0 -63.5 8.5t-65.5 31.5q-29 -23 -66 -31.5t-64 -8.5t-64 8.5t-66 31.5q-29 -23 -65.5 -31.5
t-63.5 -8.5t-64 8.5t-66 31.5q-29 -23 -66 -31.5t-64 -8.5t-63.5 8.5t-65.5 31.5q-11 -8 -22 -15.5t-25.5 -13t-34.5 -8.5t-48 -3h-23.5t-19.5 2v80q10 -2 20.5 -3t22.5 -1q13 0 30 2t34 6.5t34 12.5t32 19q29 -23 65.5 -31.5t63.5 -8.5t64 8.5t66 31.5q29 -23 66 -31.5
t64 -8.5t63.5 8.5t65.5 31.5q15 -11 32 -19t34 -12.5t33.5 -6.5t30.5 -2q13 0 30 2t34 6.5t34 12.5t32 19zM252 575q-17 15 -42 37.5t-49.5 44.5t-43 38.5t-20.5 19.5q-14 15 5 15h67q11 0 14.5 -1.5t13.5 -8.5q3 -2 16 -9.5t31 -18t39.5 -22.5t41.5 -23q25 5 58.5 10
t67.5 10t64.5 9t49.5 7q32 5 78.5 -3.5t91.5 -20.5q52 -14 108 -33q-175 -44 -313 -78q-59 -15 -115.5 -29t-100.5 -25t-71.5 -18t-28.5 -7q3 17 14 47t24 59z" />
    <glyph glyph-name="H" unicode="H" horiz-adv-x="921" 
d="M916 396q5 -13 -1 -22t-19 -9h-37q2 -5 3.5 -9t2.5 -7q1 -4 2 -6q2 -4 3.5 -16t1.5 -17v-173v-12v-93q0 -14 -9 -23t-23 -9h-118q-14 0 -23.5 9t-9.5 23v59h-456v-59q0 -14 -9.5 -23t-23.5 -9h-118q-14 0 -23 9t-9 23v93v12v173q0 5 1.5 17t3.5 16q1 2 2 6q1 5 6 16h-37
q-13 0 -19 9t-1 22l10 30q5 13 17 22t24 9h37q11 30 22.5 62.5t21.5 60t18 47.5t11 26q13 26 41.5 39t53.5 21q15 5 42 9q23 3 61 6t96 3t96.5 -3t61.5 -6q27 -4 42 -9q10 -3 23.5 -7.5t27 -11t25 -16.5t17.5 -23q4 -9 12 -29.5t18 -48.5t21 -59t22 -61h38q13 0 24.5 -9
t16.5 -22zM232 226q28 0 38 7t10 21q0 16 -19.5 25.5t-40.5 18.5q-20 9 -45 19t-40 10q-16 0 -27.5 -4.5t-11.5 -29.5v-33q0 -21 27 -27.5t60 -6.5h49zM164 444q30 -10 74 -17q37 -6 92.5 -11t130.5 -5t130 5t93 11q43 7 74 17q-17 70 -35.5 116t-23.5 62l-4.5 6.5t-27.5 14
t-71 14t-135 6.5t-135 -5.5t-71 -13.5t-28.5 -16t-6.5 -12q-5 -11 -21.5 -54t-34.5 -118zM642 254q0 -14 10 -21t38 -7h49q16 0 32 1.5t28.5 5t20 10t7.5 17.5h-1v33q0 25 -11.5 29.5t-27.5 4.5q-15 0 -40 -10t-45 -19q-21 -9 -40.5 -18.5t-19.5 -25.5z" />
    <glyph glyph-name="I" unicode="I" 
d="M726 731q29 0 49 -20t20 -49v-206q0 -14 -4 -30.5t-10.5 -32t-15.5 -30t-19 -24.5l-319 -319q-10 -10 -22.5 -15t-25.5 -5t-26 5t-23 15l-246 246q-10 10 -15 23t-5 26t5 25.5t15 22.5l319 319q10 10 24.5 19t30 15.5t32 10.5t30.5 4h206zM635 502q29 0 48.5 20t19.5 49
t-19.5 48.5t-48.5 19.5t-49 -19.5t-20 -48.5t20 -49t49 -20z" />
    <glyph glyph-name="J" unicode="J" 
d="M659 727q22 -10 29.5 -38.5t-3.5 -59.5q0 -2 -1 -3q-11 -32 -35.5 -47t-46.5 -5q-12 6 -19 16q-5 7 -8 14.5t-5 17.5q-2 12 -0.5 26t6.5 28q1 3 3 7q0 1 0.5 1t0.5 1q1 2 1.5 2.5t1.5 2.5v2q4 5 7.5 10t7.5 10q14 14 30 18.5t31 -3.5zM623 157q38 11 37 -0.5t-27 -34.5
q-25 -22 -66 -49t-86 -48q-4 -2 -7.5 -3.5t-7.5 -3.5q-42 -18 -67 -18t-39.5 11.5t-22 30.5t-14.5 39q-6 15 -9 39t-2.5 51t4.5 55.5t13 54.5l4 10t5 10q6 14 14.5 25.5t19.5 19.5q-29 -10 -53 -15q-20 -5 -37.5 -7t-19.5 5q-3 9 28 34q26 20 56 39.5t60.5 36t58.5 29
t49 18.5q18 5 30 5t15 -6q6 -12 -7.5 -35.5t-33.5 -60t-40.5 -87.5t-29.5 -117q-6 -42 -6.5 -65.5t4.5 -32.5t16 -6t28 13q19 11 47 26.5t65 29.5q6 2 11 3.5t10 3.5z" />
    <glyph glyph-name="K" unicode="K" 
d="M66 157q43 -35 83 -46.5t71 -11.5q36 0 68 12q-13 40 -11 75.5t14.5 66t33 55.5t43.5 45q55 47 132 80q-4 31 7 67t26 68q17 37 40 73q-2 20 6.5 37t19.5 29q12 14 29 26q3 -4 5.5 -13t4.5 -20q2 -12 3 -26q1 3 9 9.5t17 12.5l24 16q5 -3 6 -11t0 -17q-1 -11 -3 -22
q11 -5 18.5 -11.5t12.5 -13.5q5 -8 9 -17q5 -3 20 -9.5t31 -14.5q18 -9 41 -18q2 -8 -0.5 -14t-6.5 -10q-5 -4 -12 -8q-8 -23 -27 -31t-39 -10q-24 -2 -52 4q-4 11 -6 15q-2 3 -1 -0.5t7 -23.5t9 -48t3 -57.5t-2 -56.5t-6 -44t-7.5 -49t-1 -66.5t12 -66t30.5 -47.5
q22 -17 29.5 -27.5t9.5 -16.5q1 -7 -4 -10l-71 1q-14 12 -29 40t-28 57q-15 34 -30 74l-31 -6q5 -17 2 -34.5t-9 -33.5q-7 -18 -17 -36q47 -3 65.5 -13.5t23.5 -21.5q5 -13 -4 -29q-62 -1 -112 -1h-42.5t-39.5 0.5t-31 1t-17 1.5q-9 2 -19.5 9t-19.5 15q-11 10 -21 21
q-7 -16 -26 -27q-17 -11 -48.5 -19t-85.5 -8q-27 0 -46 6.5t-31.5 17.5t-19.5 24.5t-10 28.5q-8 34 1 78z" />
    <glyph glyph-name="L" unicode="L" 
d="M453 731q76 0 142.5 -29t116 -78.5t78.5 -116t29 -141.5q0 -76 -29 -142.5t-78.5 -116t-116 -78.5t-142.5 -29q-75 0 -141.5 29t-116 78.5t-78.5 116t-29 142.5q0 75 29 141.5t78.5 116t116 78.5t141.5 29zM453 68q61 0 115.5 23.5t95 64t64 94.5t23.5 116
q0 61 -23.5 115.5t-64 94.5t-95 63.5t-115.5 23.5q-62 0 -116 -23.5t-94.5 -63.5t-64 -94.5t-23.5 -115.5q0 -62 23.5 -116t64 -94.5t94.5 -64t116 -23.5zM629 372q13 0 22 -9t9 -22q0 -12 -9 -21t-22 -9h-211v262q0 13 9 21.5t21 8.5q13 0 22 -8.5t9 -21.5v-201h150z" />
    <glyph glyph-name="M" unicode="M" 
d="M192 577q-10 10 -10 23.5t10 23.5t23.5 10t23.5 -10l47 -47q10 -10 10 -23.5t-10 -23.5t-23.5 -10t-23.5 10zM782 399q14 0 24 -10t10 -24t-10 -23.5t-24 -9.5h-65q-14 0 -24 9.5t-10 23.5t10 24t24 10h65zM218 365q0 -14 -10 -23.5t-24 -9.5h-66q-14 0 -23.5 9.5
t-9.5 23.5t9.5 24t23.5 10h66q14 0 24 -10t10 -24zM450 565q41 0 77.5 -16t63.5 -43t43 -63.5t16 -77.5t-16 -77.5t-43 -63.5t-63.5 -42.5t-77.5 -15.5t-77.5 15.5t-63.5 42.5t-42.5 63.5t-15.5 77.5t15.5 77.5t42.5 63.5t63.5 43t77.5 16zM450 233q28 0 52 10.5t42 28.5
t28.5 42t10.5 51q0 28 -10.5 52t-28.5 42t-42 28.5t-52 10.5q-27 0 -51 -10.5t-42 -28.5t-28.5 -42t-10.5 -52q0 -27 10.5 -51t28.5 -42t42 -28.5t51 -10.5zM239 201q10 10 23.5 10t23.5 -10t10 -23.5t-10 -23.5l-47 -47q-10 -10 -23.5 -10t-23.5 10t-10 23.5t10 23.5z
M662 530q-10 -10 -23.5 -10t-23.5 10t-10 23.5t10 23.5l47 47q10 10 23.5 10t23.5 -10t10 -23.5t-10 -23.5zM450 133q14 0 24 -10t10 -24v-66q0 -14 -10 -23.5t-24 -9.5t-23.5 9.5t-9.5 23.5v66q0 14 9.5 24t23.5 10zM709 154q10 -10 10 -23.5t-10 -23.5t-23.5 -10t-23.5 10
l-47 47q-10 10 -10 23.5t10 23.5t23.5 10t23.5 -10zM450 598q-14 0 -23.5 9.5t-9.5 23.5v66q0 14 9.5 24t23.5 10t24 -10t10 -24v-66q0 -14 -10 -23.5t-24 -9.5z" />
    <glyph glyph-name="N" unicode="N" 
d="M285 468q-5 2 -15.5 9.5t-21.5 16.5t-19.5 18t-8.5 14v168q0 9 6 15t14 6t14 -6t6 -15v-131q0 -8 6 -14t14 -6q9 0 15 6t6 14v131q0 9 6 15t14 6t14 -6t6 -15v-131q0 -8 6 -14t14 -6t14 6t6 14v131q0 9 6 15t15 6q8 0 14 -6t6 -15v-168q0 -5 -7 -14t-17 -18t-19.5 -16.5
t-13.5 -9.5v-419q0 -17 -12 -29q-12 -11 -28 -12q-16 1 -28 12q-12 12 -12 29v419zM325 8h-1h1zM583 0h-1h1zM497 368q-4 0 -7 3t-3 7v252q0 42 30 71q28 30 71 30h14q9 0 15 -6t6 -14v-670q0 -17 -12 -29t-28 -12t-28 12t-12 29v327h-46z" />
    <glyph glyph-name="O" unicode="O" 
d="M710 67q10 0 10 -9q2 -10 -7 -12l-154 -46h-4h-231h-3l-154 46q-10 2 -8 12q2 9 11 9h540zM648 417q25 -2 47 -12.5t38 -28t25.5 -41t9.5 -49.5q0 -27 -10 -51t-27.5 -41.5t-40.5 -28t-49 -10.5q-2 0 -4 0.5t-4 0.5l-3 -61q-2 -11 -11 -11h-358q-11 0 -11 11l-22 382
q0 5 3 8t8 3h402q5 0 8 -3q3 -5 3 -8zM303 123q7 0 11.5 5t4.5 12l-18 295q-1 7 -5.5 11.5t-12.5 3.5q-7 -1 -11.5 -5.5t-3.5 -11.5l18 -295q2 -15 16 -15h1zM641 199q17 0 32.5 7t27 18.5t18 27.5t6.5 34q0 35 -23 60t-56 27l-10 -174h5zM309 577q-7 31 23 64q6 7 11.5 16
t3.5 18q-2 6 -6 10.5t-9 7.5q-5 4 -12 7l12 31q1 -1 7.5 -4t14.5 -9t15 -15t10 -21q8 -31 -23 -63q-18 -21 -15 -35q2 -11 12 -18t15 -9l-12 -30q-2 0 -8.5 3.5t-14 9.5t-14.5 15.5t-10 21.5zM396 577q-6 32 23 64q7 7 12 16t3 18q-2 6 -5.5 10.5t-8.5 7.5q-5 4 -12 7l11 31
q1 -1 8 -4t14.5 -9t14.5 -15t10 -21q8 -31 -23 -63q-18 -21 -15 -35q2 -11 12.5 -18t15.5 -9l-13 -30q-2 0 -8.5 3.5t-14 9.5t-14.5 15.5t-10 21.5zM483 577q-6 31 24 64q6 7 11.5 16t3.5 18q-2 6 -6 10.5t-9 7.5q-5 4 -12 7l12 31q1 -1 7.5 -4t14.5 -9t15 -15t10 -21
q6 -32 -23 -63q-19 -20 -16 -35q3 -11 13 -18t15 -9l-12 -30q-2 0 -8.5 3.5t-14 9.5t-15 15.5t-10.5 21.5z" />
    <glyph glyph-name="P" unicode="P" horiz-adv-x="1066" 
d="M874 609q39 0 73 -14.5t59.5 -40t40 -59.5t14.5 -73v-113q0 -39 -14.5 -73t-40 -59.5t-59.5 -40t-73 -14.5h-69q-51 -57 -121 -89.5t-151 -32.5t-151 32.5t-121 89.5h-69q-39 0 -73 14.5t-59.5 40t-40 59.5t-14.5 73v113q0 39 14.5 73t40 59.5t59.5 40t73 14.5h69
q51 57 121 89.5t151 32.5t151 -32.5t121 -89.5h69zM376 490h-66l-20 -147l-25 146h-59l-26 -146l-19 146h-67l56 -250h59l25 154l27 -154h59zM434 504q-14 0 -24.5 -9t-10.5 -23t10.5 -23t24.5 -9q15 0 25 9t10 23t-10 23t-25 9zM404 241h60v180h-60v-180zM1020 422
q0 30 -11.5 57t-31.5 46.5t-46.5 31t-56.5 11.5h-195q-30 0 -57 -11.5t-46.5 -31t-31 -46.5t-11.5 -57v-113q0 -30 -5 -57t-14.5 -47t-25 -31.5t-36.5 -11.5h422q30 0 56.5 11.5t46.5 31.5t31.5 47t11.5 57v113zM873 421h60v-180h-60v180zM904 504q14 0 24.5 -9t10.5 -23
t-10.5 -23t-24.5 -9q-15 0 -25 9t-10 23t10 23t25 9zM636 489h200v-58h-136v-56h123v-58h-123v-76h-64v248z" />
    <glyph glyph-name="Q" unicode="Q" 
d="M792 310v-216q0 -22 -8 -37q-9 -17 -24 -30q-14 -12 -34 -20q-18 -7 -42 -7h-440q-23 0 -41 7q-19 7 -35 20q-15 15 -23 30t-8 37v216q0 20 8 36q9 18 24 30q14 12 34 20q21 8 41 8h441q20 0 41 -8q19 -7 35 -20q14 -13 23 -30q8 -16 8 -36zM274 70v227h54v35h-146v-34
h46v-228h46zM296 599l-61 132h53l30 -99l30 99h52l-56 -132v-154h-48v154zM438 264h-46v-121q0 -16 1 -21q0 -7 -2 -9q-3 -9 -12 -11q-9 -5 -14 10q-1 1 -1 10q1 5 1 20l-1 122h-45l1 -120v-13.5t-1 -10.5q0 -11 1 -15q0 -4 0.5 -8t1.5 -9q0 -8 9 -14q8 -5 18 -5t21 3
q11 5 19 10q4 3 7 6t5 7l-1 -24l38 -1v194zM396 579q0 26 5 44q6 18 19 26q13 10 34 10q17 0 31 -6q12 -5 20 -17q6 -9 9 -20q3 -12 3 -33v-52q0 -28 -3 -40q-2 -13 -10 -25q-9 -12 -19 -16q-14 -6 -28 -6q-15 0 -30 5q-13 5 -18 14q-5 8 -10 22q-3 13 -3 41v53zM437 499
q0 -9 5 -14q7 -7 15 -7t14 6t6 15v106q0 9 -6 15t-14 6t-14 -6t-6 -15v-106zM583 125v101q0 29 -20 41q-7 4 -16 4q-16 0 -37 -15v76h-45v-260l37 1l3 16q17 -14 32 -19q15 -3 25 3q10 5 16 20q2 8 3.5 15.5t1.5 16.5zM529 246q9 0 14 -4q6 -6 6 -11v-114q0 -6 -6 -10
q-7 -5 -14 -5t-14 5q-6 4 -6 10v114q0 5 6 11q5 4 14 4zM550 465q-2 6 -3 8q0 6 -1 8q-1 4 -1 14v21v135h42v-156q0 -5 5 -10t11 -5q7 0 12 5q5 4 5 10v156h39v-200h-50l1 16q-7 -11 -13 -15q-8 -5 -17 -5q-11 0 -19 5q-7 5 -11 13zM726 138h-34v-5v-17q0 -8 -6 -12
q-5 -4 -13 -4h-7q-9 0 -13 4q-5 4 -5 12v2v19v26h78v27q0 8 -0.5 15t-0.5 14q0 12 -2 22q-3 13 -12 21t-24 11q-16 3 -27 1q-14 -1 -25 -9q-13 -10 -19 -24q-6 -15 -6 -42v-61q0 -39 20 -54q21 -16 40 -16h4q23 2 40 20q14 14 14 35q-1 4 -1 7.5t-1 7.5zM691 196h-43l1 24
q0 6 5 13q7 5 15 5h2q8 0 15 -5q6 -5 6 -13z" />
    <glyph glyph-name="R" unicode="R" 
d="M767 605q32 -32 31.5 -75.5t-32.5 -75.5l-106 -103q-16 -16 -36 -24t-40.5 -8t-40.5 8t-36 24l59 58q14 -3 29.5 1.5t26.5 15.5l68 66q16 16 16 38t-16 37l-57 57q-17 16 -39 16t-38 -16l-68 -65q-11 -11 -16 -26t0 -29l-61 -58q-16 15 -23.5 35t-7.5 40t8 40t24 35
l106 104q16 16 36 23.5t40.5 7.5t40.5 -8t36 -23zM439 285q16 -16 24 -36t8 -41t-8 -41t-24 -36l-103 -99q-16 -16 -36.5 -24t-41.5 -8t-41.5 8t-36.5 24l-97 96q-16 16 -24 36t-8 41t8 41t24 36l102 100q16 16 37 23.5t42 7.5t41.5 -8t36.5 -24l-61 -60q-14 5 -29.5 0
t-27.5 -16l-63 -62q-17 -16 -17 -38t17 -38l58 -58q17 -16 39.5 -16.5t39.5 15.5l63 62q11 11 16 26.5t1 29.5zM312 253q-11 11 -11 26.5t11 26.5l175 174q11 11 26 11t26 -11t11 -26.5t-11 -26.5l-175 -174q-11 -11 -26 -11t-26 11z" />
    <glyph glyph-name="S" unicode="S" horiz-adv-x="1101" 
d="M1033 731q26 0 44.5 -19t18.5 -45v-397q0 -26 -18.5 -44.5t-44.5 -18.5h-301q5 -9 8 -17q10 -29 -4 -55l-48 -95q-10 -19 -27 -29.5t-38 -10.5q-17 0 -33 8t-25 22q-22 -22 -52 -22q-17 0 -33 8q-23 12 -33.5 35.5t-3.5 48.5q-8 -6 -16 -12.5t-16 -12.5
q-8 -9 -30.5 -20.5t-68.5 -16.5q-16 -2 -41 -3t-60 -1q-29 0 -57.5 0.5t-52 1.5t-38.5 1.5l-15 0.5q-14 0 -26.5 9.5t-12.5 23.5l-2 334q0 17 12 26l231 203q3 3 6.5 4.5t7.5 3.5q2 0 15.5 3t33.5 3q15 0 27 -2.5t22 -6.5v29q0 26 18.5 44.5t44.5 18.5h608zM585 163
q5 9 2 21q-3 10 -14 16q-2 2 -5 2t-6 1q-8 -1 -14 -5.5t-11 -10.5q-5 -7 -9 -16l-39 -78q-5 -10 -2 -21t14 -16q10 -5 20.5 -1.5t15.5 14.5zM510 247q33 33 50.5 57t25 40.5t8 24.5t0.5 10q0 1 -1 1h-4q-17 0 -42 -7.5t-53 -18.5t-55 -24t-47 -24q-7 -4 -13.5 -3.5
t-13.5 2.5l-3 -2v3q-3 0 -4 1q-17 10 -17 29v236q-7 8 -28 8q-14 0 -24 -2l-214 -187v-287q24 -1 62.5 -0.5t73.5 0.5h62t30 1q17 2 28.5 5t18.5 6q8 4 12 7q2 3 5 5q60 44 100 79h-1zM695 155q5 9 2 21q-3 10 -14 16q-5 3 -12 3q-16 0 -24 -15l-48 -95q-5 -10 -2 -20.5
t14 -15.5q10 -5 20.5 -1.5t15.5 13.5zM1054 486h-645v-95q19 9 43 19.5t48 19t47 14t42 5.5q29 0 43 -11t19 -21q5 -7 9 -19.5t2 -32.5q-4 -50 -58 -116h429q8 0 14.5 6t6.5 15v216zM1054 667q0 9 -6 15.5t-15 6.5h-608q-8 0 -14.5 -6.5t-6.5 -14.5v-57h650v56zM840 288
l-1 57h167v-57h-166z" />
    <glyph glyph-name="T" unicode="T" horiz-adv-x="844" 
d="M578 731l261 -157v-574l-261 157l-313 -157l-261 157v574l261 -157zM291 529v-458l261 131v458zM56 639v-453l183 -109v452l-1 1zM787 92v453l-183 109v-452l1 -1z" />
  </font>
</defs>
</svg>
