<?xml version="1.0" standalone="no"?>
<!DOCTYPE svg PUBLIC "-//W3C//DTD SVG 1.1//EN" "http://www.w3.org/Graphics/SVG/1.1/DTD/svg11.dtd" >
<svg xmlns="http://www.w3.org/2000/svg">
<metadata></metadata>
<defs>
<font id="cocobold" horiz-adv-x="1400" >
<font-face units-per-em="2048" ascent="1638" descent="-410" />
<missing-glyph horiz-adv-x="700" />
<glyph horiz-adv-x="2048" />
<glyph horiz-adv-x="2048" />
<glyph unicode="&#xd;" horiz-adv-x="508" />
<glyph unicode=" "  horiz-adv-x="700" />
<glyph unicode="&#x09;" horiz-adv-x="700" />
<glyph unicode="&#xa0;" horiz-adv-x="700" />
<glyph unicode="!" horiz-adv-x="600" d="M100 140q0 -60 40 -100t110 -40t110 40t40 100t-40 100.5t-112 40.5q-68 0 -108 -40.5t-40 -100.5zM130 1334q0 72 27.5 102t103.5 30q77 0 104 -30t27 -102l-81 -935h-132z" />
<glyph unicode="&#x22;" horiz-adv-x="800" d="M101 1500q0 29 24 58t86 29q60 0 86 -28.5t26 -57.5q0 -5 -2 -23l-54 -380h-110l-53 376q-3 19 -3 26zM413 1500q0 29 24.5 58t86.5 29q60 0 85.5 -28.5t25.5 -57.5q0 -5 -2 -23l-53 -380h-111l-52 377q-4 18 -4 25z" />
<glyph unicode="#" horiz-adv-x="1492" d="M37 430l52 184h271l84 267h-295l51 183h295l130 435h237l-131 -435h218l132 435h236l-131 -435h289l-51 -183h-289l-81 -267h309l-52 -184h-310l-130 -430h-236l129 430h-216l-132 -430h-236l130 430h-273zM597 609h218l84 267h-219z" />
<glyph unicode="$" horiz-adv-x="1413" d="M87 220l200 200q96 -115 320 -138v360q-168 23 -310 108q-150 90 -150 310q0 199 171 320q141 99 289 117v103h140v-102q153 -8 245 -48q115 -50 215 -150l-200 -200q-94 113 -260 120v-322q178 -24 325 -123q155 -105 155 -335q0 -180 -165 -310q-139 -109 -315 -126 v-104h-140v102q-164 8 -280 58q-140 60 -240 160zM497 990q31 -37 110 -62v279q-79 -20 -110 -72q-50 -85 0 -145zM747 290q97 19 130 75q49 85 0 170q-33 56 -130 83v-328z" />
<glyph unicode="%" horiz-adv-x="1900" d="M59 1135q0 160 108 268t268 108t268 -108t108 -268t-108 -268t-268 -108t-268 108t-108 268zM242 1136q0 -85 53 -142t137 -57t137 57t53 142t-53 141.5t-138 56.5q-83 0 -136 -56.5t-53 -141.5zM352 0l850 1500h244l-848 -1500h-246zM990 365q0 159 107 266t266 107 t266 -107t107 -266t-107 -266t-266 -107t-266 107t-107 266zM1172 366q0 -83 52 -138.5t134 -55.5t134 55.5t52 138.5q0 82 -52 137.5t-135 55.5q-81 0 -133 -55.5t-52 -137.5z" />
<glyph unicode="&#x26;" horiz-adv-x="1642" d="M90 422q0 141 84 253.5t251 195.5q-75 89 -108 169.5t-33 152.5q0 133 106.5 225.5t303.5 92.5q190 0 292 -97t102 -237q0 -89 -53 -169t-214 -181l204 -269q36 64 72 187l244 -78q-38 -135 -66 -197.5t-70 -114.5l295 -355h-341l-123 150q-89 -80 -189 -118t-238 -38 q-274 0 -412 154q-107 119 -107 274zM378 432q0 -91 59.5 -148.5t159.5 -57.5q66 0 127 26t133 86l-286 353q-97 -49 -145 -118t-48 -141zM558 1192q0 -52 54 -116l69 -80l76 58q74 55 74 119q0 54 -35.5 87t-104.5 33q-67 0 -100 -28.5t-33 -72.5z" />
<glyph unicode="'" horiz-adv-x="500" d="M101 1500q0 29 24 58t86 29q60 0 86 -28.5t26 -57.5q0 -5 -2 -23l-54 -380h-110l-53 376q-3 19 -3 26z" />
<glyph unicode="(" horiz-adv-x="944" d="M96 601q2 208 56 397q55 197 169 375q69 109 125 172l35 38h279q-8 -15 -27 -37q-31 -34 -44 -52q-111 -169 -180 -370t-69 -444q0 -40 1 -79q-1 -38 -1 -79q0 -244 69 -443t180 -367q13 -18 44 -53q19 -22 27 -39h-279l-35 39q-56 64 -125 171q-114 178 -170 375 q-53 188 -55 396z" />
<glyph unicode=")" horiz-adv-x="965" d="M100 -380q8 17 27 39q31 35 44 53q111 168 180 367t69 443q0 41 -1 79q1 39 1 79q0 243 -69 444t-180 370q-13 18 -44 52q-19 22 -27 37h279l35 -38q56 -63 125 -172q114 -178 169 -375q54 -189 56 -397q-2 -208 -55 -396q-56 -197 -170 -375q-69 -107 -125 -171l-35 -39 h-279z" />
<glyph unicode="*" horiz-adv-x="900" d="M99 1344l32 98l228 -83v241h100v-241l227 86l38 -96l-235 -89l145 -195l-75 -65l-152 200l-148 -200l-80 44l149 221z" />
<glyph unicode="+" horiz-adv-x="1200" d="M80 597v240h352v330h244v-330h352v-240h-352v-330h-244v330h-352z" />
<glyph unicode="," horiz-adv-x="594" d="M101 140q0 60 40 100.5t108 40.5q72 0 112 -40.5t40 -100.5v-7q0 -242 -200 -343l-50 90q81 31 111 120h-11q-70 0 -110 40t-40 100z" />
<glyph unicode="-" horiz-adv-x="900" d="M80 401v199h620v-199h-620z" />
<glyph unicode="." horiz-adv-x="581" d="M91 140q0 60 40 100.5t108 40.5q72 0 112 -40.5t40 -100.5t-40 -100t-110 -40t-110 40t-40 100z" />
<glyph unicode="/" horiz-adv-x="823" d="M-14 -60l548 1504h195l-548 -1504h-195z" />
<glyph unicode="0" horiz-adv-x="1382" d="M92 750q0 320 150 535t400 215q251 0 400.5 -215t149.5 -535t-149.5 -535t-400.5 -215q-250 0 -400 215.5t-150 534.5zM392 750q0 -200 75 -335t176 -135q99 0 174 135t75 335t-75 335t-176 135q-99 0 -174 -135t-75 -335z" />
<glyph unicode="1" horiz-adv-x="947" d="M47 1100l400 400v1h299v-1501h-299v1100l-200 -200z" />
<glyph unicode="2" horiz-adv-x="1300" d="M80 1300q100 100 195 150t324 50q220 0 360.5 -110.5t140.5 -329.5q0 -260 -199.5 -476t-329.5 -284h540v-300h-1011v300q100 0 380 250t325 355t-5 210t-240 105q-180 0 -280 -120z" />
<glyph unicode="3" d="M96 220l200 200q100 -120 340 -140q200 0 249.5 85t0 170t-348.5 95v270q299 -20 348.5 65t0 170t-249.5 85q-190 0 -290 -120l-200 200q100 100 215 150t324 50q220 0 365.5 -130t145.5 -310q0 -210 -135 -285q-13 -7 -29 -15q27 -10 49 -20q155 -70 155 -300 q0 -180 -165.5 -310t-385.5 -130q-209 0 -349 60t-240 160z" />
<glyph unicode="4" horiz-adv-x="1411" d="M80 330v299h10l-9 10l680 860v2h299v-872h202v-299h-202v-330h-299v330h-681zM396 629h365v478z" />
<glyph unicode="5" horiz-adv-x="1302" d="M54 220l200 200q100 -120 320 -130q270 0 295 198q-6 127 -92 186q-46 49 -322 56h-320v770h920v-280h-620v-210h120q299 0 454 -135q155 -155 155 -405q0 -190 -150.5 -330t-370.5 -140q-209 0 -349 60t-240 160z" />
<glyph unicode="6" horiz-adv-x="1388" d="M98 729q0 361 155 563.5t415 206.5q260 -6 420 -149l-150 -200q-110 60 -257 60q-130 0 -207 -85t-86 -255q152 130 300 130q260 0 385 -135t125 -365q0 -210 -140 -355t-400 -145q-300 10 -430 203t-130 526zM428 499q10 -209 240 -218q230 9 240 199q-10 250 -250 250 q-210 -10 -230 -231z" />
<glyph unicode="7" horiz-adv-x="1262" d="M76 1500h1024v-110l-559 -1390h-292l1 100l469 1120h-642z" />
<glyph unicode="8" horiz-adv-x="1292" d="M70 440q0 230 155 300q22 10 49 20q-16 8 -29 15q-135 75 -135 285t130.5 325t350.5 115q218 0 348.5 -115t130.5 -325t-135 -285q-13 -7 -29 -15q27 -10 49 -20q155 -70 155 -300t-145.5 -335t-375.5 -105q-228 0 -373.5 105t-145.5 335zM421 365q45 -78 169 -84 q124 6 170 84q49 85 0 170q-38 65 -170 86q-132 -21 -169 -86q-50 -85 0 -170zM421 965q37 -65 169 -69q132 4 170 69q49 85 0 170q-46 78 -170 84q-124 -6 -169 -84q-50 -85 0 -170z" />
<glyph unicode="9" horiz-adv-x="1328" d="M100 1052q21 209 174.5 339.5t412.5 104.5q227 -39 337.5 -199t117.5 -462q-6 -479 -180.5 -665t-433.5 -164q-258 31 -403 190l169 184q104 -71 250 -85q129 -13 214 64t111 245q-164 -114 -311 -100q-259 26 -370 172.5t-88 375.5zM362 1019q10 -250 250 -250 q210 10 230 231q-10 209 -240 218q-230 -9 -240 -199z" />
<glyph unicode=":" horiz-adv-x="586" d="M96 140q0 60 40 100.5t108 40.5q72 0 112 -40.5t40 -100.5t-40 -100t-110 -40t-110 40t-40 100zM96 856q0 60 40 100.5t108 40.5q72 0 112 -40.5t40 -100.5t-40 -100t-110 -40t-110 40t-40 100z" />
<glyph unicode=";" horiz-adv-x="602" d="M97 140q0 60 40 100.5t108 40.5q72 0 112 -40.5t40 -100.5v-7q0 -242 -200 -343l-50 90q81 31 111 120h-11q-70 0 -110 40t-40 100zM102 860q0 60 40 100.5t108 40.5q72 0 112 -40.5t40 -100.5t-40 -100t-110 -40t-110 40t-40 100z" />
<glyph unicode="&#x3c;" horiz-adv-x="1148" d="M48 721v65l948 514v-230l-580 -320l580 -320v-230z" />
<glyph unicode="=" horiz-adv-x="1200" d="M100 400v199h900v-199h-900zM100 801v199h900v-199h-900z" />
<glyph unicode="&#x3e;" horiz-adv-x="1154" d="M100 200v230l580 320l-580 320v230l948 -514v-65z" />
<glyph unicode="?" horiz-adv-x="1249" d="M50 1300q100 100 215 150t324 50q180 0 340.5 -120.5t160.5 -319.5q-10 -140 -75 -245t-210 -145t-154 -270h-280q0 190 65 315t228 161q137 24 142 202q-35 137 -276 142q-180 0 -280 -120zM371 140q0 -60 40 -100t110 -40t110 40t40 100t-40 100.5t-112 40.5 q-68 0 -108 -40.5t-40 -100.5z" />
<glyph unicode="@" horiz-adv-x="2189" d="M92 546q0 334 235.5 619t715.5 285q479 0 708 -260.5t242 -651.5q-40 -549 -350 -618q-274 -11 -422 184q-122 -80 -220 -80q-200 0 -300 85t-100 235q0 140 94.5 250t305.5 110q97 0 220 -60v30q-2 110 -160 120q-180 0 -280 -60l-130 150q190 130 460 140 q180 0 285 -100t105 -300v-392q111 -111 176.5 28.5t57.5 280.5q-3 306 -167.5 507t-524.5 202q-343 0 -516.5 -205t-181.5 -502q8 -409 255 -591t842 -152v-200q-780 -30 -1060 231.5t-290 714.5zM841 374q10 -119 190 -129q150 0 190 79v113q-40 77 -190 77 q-180 -20 -190 -140z" />
<glyph unicode="A" horiz-adv-x="1644" d="M44 0l600 1500h300l599 -1499l-319 -1l-90 230h-680l-90 -230h-320zM574 530h450l-222 570z" />
<glyph unicode="B" horiz-adv-x="1573" d="M100 0v1499h796q379 -22 400 -441q-7 -200 -108 -267q197 -132 209 -343q-20 -424 -453 -449zM401 234h490q211 3 216 217q-5 144 -213 150h-493v-367zM401 898h420q181 3 186 187q-5 110 -183 116h-423v-303z" />
<glyph unicode="C" horiz-adv-x="1549" d="M49 753q1 316 216 531.5t533 215.5q321 0 551 -200l-200 -219q-153 120 -351 120q-202 -1 -325.5 -126t-123.5 -320q1 -209 125 -332t326 -123t349 119l200 -219q-229 -200 -551 -200q-318 1 -533.5 215.5t-215.5 537.5z" />
<glyph unicode="D" horiz-adv-x="1600" d="M123 0v1501h578q700 0 700 -751q0 -750 -700 -750h-578zM423 299h278q399 1 400 451q-1 450 -400 450h-278v-901z" />
<glyph unicode="E" d="M119 0v1499l1102 1v-280h-802v-320h601v-279h-601v-341h800v-280h-1100z" />
<glyph unicode="F" horiz-adv-x="1272" d="M122 0v1500h1055v-280h-755v-320h557v-279h-557v-621h-300z" />
<glyph unicode="G" horiz-adv-x="1521" d="M42 753q1 316 216 531.5t533 215.5q321 0 551 -200l-200 -219q-153 120 -351 120q-202 -1 -325.5 -126t-123.5 -320q1 -209 125 -332t326 -123q162 0 249 64v257l-200 -1v280h500v-700q-229 -200 -551 -200q-318 1 -533.5 215.5t-215.5 537.5z" />
<glyph unicode="H" horiz-adv-x="1623" d="M123 0v1500h300v-600h699v601h300v-1500l-300 -1v620h-699v-620h-300z" />
<glyph unicode="I" horiz-adv-x="600" d="M123 0v1501h299v-1501h-299z" />
<glyph unicode="J" horiz-adv-x="849" d="M49 0v280h99q201 9 201 219v1001h301l-1 -1101q0 -179 -110 -289t-288 -110h-202z" />
<glyph unicode="K" horiz-adv-x="1444" d="M126 0v1500h300v-600l500 600h337l-587 -700l710 -800h-390l-570 648v-648h-300z" />
<glyph unicode="L" horiz-adv-x="1350" d="M126 0v1500h300v-1220h800v-280h-1100z" />
<glyph unicode="M" horiz-adv-x="1800" d="M123 0v1500h100l650 -740l651 740h100v-1500h-300l-1 870l-450 -500l-450 500v-870h-300z" />
<glyph unicode="N" horiz-adv-x="1651" d="M123 0v1500h100l940 -940v940h300v-1500h-110l-930 930v-930h-300z" />
<glyph unicode="O" horiz-adv-x="1647" d="M47 750q0 320 215 535t535 215t535 -215t215 -535t-215 -535t-535 -215t-535 215.5t-215 534.5zM347 750q0 -200 125 -335t326 -135q199 0 324 135t125 335t-125 335t-326 135q-199 0 -324 -135t-125 -335z" />
<glyph unicode="P" d="M123 0v1500h654q525 0 525 -432q0 -448 -524 -448h-355v-620h-300zM423 900h420q181 3 186 165q-5 148 -183 154h-423v-319z" />
<glyph unicode="Q" horiz-adv-x="1652" d="M52 750q0 320 215 535t535 215t535 -215t215 -535q0 -292 -179 -496l128 -166l-238 -183l-128 166q-149 -71 -333 -71q-320 0 -535 215.5t-215 534.5zM352 750q0 -200 125 -335t326 -135q83 0 153 23l-113 147l238 183l106 -138q65 111 65 255q0 200 -125 335t-326 135 q-199 0 -324 -135t-125 -335z" />
<glyph unicode="R" horiz-adv-x="1433" d="M123 0v1500h654q525 0 525 -432q0 -325 -276 -414l374 -654h-344l-359 620h-274v-620h-300zM423 900h420q181 3 186 165q-5 148 -183 154h-423v-319z" />
<glyph unicode="S" horiz-adv-x="1315" d="M30 220l200 200q100 -120 340 -140q200 0 250 85q25 41 25 83q0 43 -25 87q-50 85 -250 105q-180 20 -330 110t-150 310q0 199 170.5 319.5t350.5 120.5q209 0 324 -50t215 -150l-200 -200q-100 120 -280 120t-230 -85q-25 -42 -25 -78.5t25 -66.5q50 -60 230 -90 q190 -20 345 -125t155 -335q0 -180 -165.5 -310t-385.5 -130q-209 0 -349 60t-240 160z" />
<glyph unicode="T" horiz-adv-x="1447" d="M47 1220v280h1300v-280h-500v-1220h-300v1220h-500z" />
<glyph unicode="U" horiz-adv-x="1601" d="M100 550v950h300v-870q0 -170 100 -250t250 -80t250 80t100 250v870h300v-950q0 -230 -185 -390t-465 -160t-465 160t-185 390z" />
<glyph unicode="V" horiz-adv-x="1657" d="M31 1500h320l426 -1099l434 1099h320l-599 -1500h-300z" />
<glyph unicode="W" horiz-adv-x="2134" d="M34 1500h320l261 -1020l270 1020h310l260 -1020l260 1020h320l-400 -1500h-300l-300 1100l-300 -1100h-300z" />
<glyph unicode="X" horiz-adv-x="1616" d="M44 0l573 781l-525 719h352l350 -477l350 477h352l-525 -719l573 -781h-356l-394 539l-394 -539h-356z" />
<glyph unicode="Y" horiz-adv-x="1534" d="M35 1500h352l348 -490l356 490h344l-550 -750v-750h-300v750z" />
<glyph unicode="Z" horiz-adv-x="1475" d="M98 0l1 100l699 1120h-699l-1 280h1201v-110l-702 -1110h702v-280h-1201z" />
<glyph unicode="[" horiz-adv-x="758" d="M99 -400v2299h280l221 1l1 -270h-222v-1760h221v-270h-501z" />
<glyph unicode="\" horiz-adv-x="823" d="M36 1444h195l548 -1504h-195z" />
<glyph unicode="]" horiz-adv-x="800" d="M99 1630l1 270l221 -1h280v-2299h-501v270h221v1760h-222z" />
<glyph unicode="^" horiz-adv-x="1000" d="M100 1252l353 500l349 -500h-101l-250 251l-249 -251h-102z" />
<glyph unicode="_" horiz-adv-x="1300" d="M100 -100h1024v-100h-1024v100z" />
<glyph unicode="a" horiz-adv-x="1099" d="M49 320q0 140 94.5 250t305.5 110q97 0 220 -60v30q-2 110 -160 120q-180 0 -280 -60l-110 170q190 120 440 120q180 0 285 -100t105 -300v-600h-280v80q-122 -80 -220 -80q-200 0 -300 85t-100 235zM289 350q10 -119 190 -129q150 0 190 79v113q-40 77 -190 77 q-180 -20 -190 -140z" />
<glyph unicode="b" horiz-adv-x="1191" d="M91 0v1499l280 1v-581q70 71 220 81q230 0 365 -150t135 -350t-135 -350t-365 -150q-108 0 -220 80v-80h-280zM371 410q20 -150 210 -180q260 10 270 290q-30 230 -270 249q-190 -29 -210 -197v-162z" />
<glyph unicode="c" horiz-adv-x="1049" d="M49 450v100q0 200 150 325t351 125q240 0 399 -170l-200 -150q-90 90 -200 90q-100 0 -175 -80t-75 -190t70 -190t180 -80t200 90l200 -150q-160 -170 -400 -170q-200 0 -350 125t-150 325z" />
<glyph unicode="d" horiz-adv-x="1195" d="M49 500q0 200 135 350t365 150q150 -10 220 -81v581l280 -1v-1499h-280v80q-112 -80 -220 -80q-230 0 -365 150t-135 350zM289 520q10 -280 270 -290q190 30 210 180v162q-20 168 -210 197q-240 -19 -270 -249z" />
<glyph unicode="e" horiz-adv-x="1147" d="M47 500q0 220 140 360t360 140t350 -140t130 -360v-100h-690q10 -80 70 -125t140 -45q140 0 250 80l160 -160q-110 -150 -410 -150q-220 0 -360 140t-140 360zM347 600h400q0 80 -60 125t-140 45t-140 -45t-60 -125z" />
<glyph unicode="f" horiz-adv-x="772" d="M-3 800v226h150v134q0 150 100 245t270 95q180 0 280 -100l-149 -166q-28 31 -100 31q-53 0 -86.5 -32.5t-33.5 -112.5v-94h150v-226h-150v-800h-281v800h-150z" />
<glyph unicode="g" horiz-adv-x="1144" d="M44 500q0 220 125 360t355 140q170 -10 240 -91v91l280 -30v-890q0 -210 -125 -351t-315 -149l-60 -6q-290 6 -450 166l130 150q110 -80 267 -90q160 0 216.5 75t56.5 165v50q-112 -90 -260 -90q-230 0 -345 135t-115 365zM284 520q10 -280 270 -290q190 30 210 180v162 q-20 168 -210 197q-250 -9 -270 -249z" />
<glyph unicode="h" horiz-adv-x="1100" d="M100 0v1500h280v-590q101 90 240 90q190 0 290 -115t100 -265v-620h-280v550q0 100 -50 155t-151 58q-87 -6 -149 -87v-676h-280z" />
<glyph unicode="i" horiz-adv-x="524" d="M90 1240q0 60 40 100.5t108 40.5q72 0 112 -40.5t40 -100.5t-40 -100t-110 -40t-110 40t-40 100zM100 0v1001h280v-1001h-280z" />
<glyph unicode="j" horiz-adv-x="595" d="M-140 -200h99q201 9 201 219v981h281l-1 -1031q0 -179 -100 -289t-278 -110h-202v230zM149 1240q0 60 40 100.5t108 40.5q72 0 112 -40.5t40 -100.5t-40 -100t-110 -40t-110 40t-40 100z" />
<glyph unicode="k" horiz-adv-x="1200" d="M126 0v1500h300v-849l287 349h337l-374 -449l474 -551h-390l-334 399v-399h-300z" />
<glyph unicode="l" horiz-adv-x="573" d="M100 0v1500h280v-1500h-280z" />
<glyph unicode="m" horiz-adv-x="1773" d="M96 0v971l280 30v-89q94 88 240 88q190 0 290 -115q110 115 330 115q190 0 290 -115t100 -265v-620h-280v550q0 100 -45 155t-146 58q-83 -6 -144 -110q-5 -31 -5 -63v-590h-280v550q0 100 -45 155t-146 58q-92 -6 -159 -123v-640h-280z" />
<glyph unicode="n" horiz-adv-x="1145" d="M100 0v971l280 30v-91q101 90 240 90q190 0 290 -115t100 -265v-620h-280v550q0 100 -50 155t-151 58q-87 -6 -149 -127v-636h-280z" />
<glyph unicode="o" horiz-adv-x="1152" d="M42 500q0 218 146 364t364 146t364 -146t146 -364t-146 -364t-364 -146t-364 146.5t-146 363.5zM295 499q0 -114 71 -190.5t185 -76.5t185 76.5t71 190.5t-71 191t-186 77q-113 0 -184 -77t-71 -191z" />
<glyph unicode="p" horiz-adv-x="1196" d="M96 -420v1391l280 30v-80q112 80 220 80q230 0 365 -150t135 -350t-135 -350t-365 -150q-150 10 -220 81v-503zM376 429q20 -168 210 -197q240 19 270 249q-10 280 -270 290q-190 -30 -210 -180v-162z" />
<glyph unicode="q" horiz-adv-x="1172" d="M44 501q0 200 135 350t365 150q108 0 220 -80v80l280 -30v-1391l-280 -1v503q-70 -71 -220 -81q-230 0 -365 150t-135 350zM284 481q30 -230 270 -249q190 29 210 197v162q-20 150 -210 180q-260 -10 -270 -290z" />
<glyph unicode="r" horiz-adv-x="796" d="M78 0v971l280 30v-111q107 110 261 110q49 0 93 -8l-44 -276q-49 44 -140 47q-102 -7 -170 -148v-615h-280z" />
<glyph unicode="s" horiz-adv-x="928" d="M52 139l155 175q68 -81 211 -94q114 0 148 38q20 22 20 44q0 14 -10 30q-24 38 -158 51q-122 14 -223.5 75t-101.5 230q0 155 115.5 236.5t237.5 81.5q141 0 219 -34t146 -101l-156 -176q-68 81 -170 81q-101 0 -135 -38q-17 -19 -17 -35.5t17 -32.5q34 -30 135 -50 q149 -14 244 -85t95 -247q0 -142 -112 -220t-261 -78q-142 0 -236.5 40.5t-162.5 108.5z" />
<glyph unicode="t" horiz-adv-x="787" d="M32 773v226h150v271l281 30v-301h150v-226h-150v-393q0 -80 33.5 -112.5t86.5 -32.5q16 0 75 13l59 -201q-72 -47 -165 -47q-170 0 -270 95t-100 245v433h-150z" />
<glyph unicode="u" horiz-adv-x="1125" d="M73 381v620h280v-550q0 -100 50 -155t151 -58q87 6 149 117v646h280v-1001h-280v91q-101 -90 -240 -90q-190 0 -290 115t-100 265z" />
<glyph unicode="v" horiz-adv-x="1142" d="M17 1000h284l235 -625l240 625h284l-401 -1000h-240z" />
<glyph unicode="w" horiz-adv-x="1460" d="M25 1001h263l155 -591l150 591h207l143 -601l154 601h263l-267 -1001h-250l-150 501l-150 -501h-250z" />
<glyph unicode="x" horiz-adv-x="1096" d="M13 0l356 521l-324 477h284l183 -268l183 268h284l-324 -477l356 -521h-287l-212 312l-212 -312h-287z" />
<glyph unicode="y" horiz-adv-x="1128" d="M85 380v620h280v-550q0 -100 50 -155t151 -58q88 6 154 109v654h280v-920q0 -210 -130 -351t-310 -149l-60 -6q-210 6 -380 166l130 150q120 -90 227 -100q130 0 186.5 65t56.5 185v51q-106 -91 -245 -91q-190 0 -290 115t-100 265z" />
<glyph unicode="z" horiz-adv-x="1013" d="M85 0v67l416 695h-416v236h799v-73l-417 -689h417v-236h-799z" />
<glyph unicode="|" horiz-adv-x="774" d="M195 -400v2299h280v-2299h-280z" />
<glyph unicode="&#xa3;" horiz-adv-x="1365" d="M91 631v168h98q-19 134 4 281q30 199 160.5 309.5t320.5 110.5q179 0 284 -45t205 -145l-170 -230q-100 120 -280 130q-140 -10 -200 -80t-65 -210q-2 -61 8 -121h436v-168h-384q50 -135 -16 -401h700v-230h-1030v230q160 170 76 385q-4 8 -7 16h-140z" />
<glyph unicode="&#xa8;" horiz-adv-x="1707" d="M523 1660v177h177v-177h-177zM893 1660v177h177v-177h-177z" />
<glyph unicode="&#xa9;" horiz-adv-x="1674" d="M94 718q0 143 52.5 276.5t153.5 237.5q102 109 242.5 169.5t297.5 60.5q152 0 291 -60.5t243 -169.5q99 -102 152.5 -237.5t53.5 -276.5q0 -142 -53.5 -275.5t-156.5 -239.5q-105 -110 -243 -168.5t-294 -58.5q-153 0 -289 59.5t-242 169.5q-103 105 -155.5 237 t-52.5 276zM166 718q0 -142 54.5 -265.5t154.5 -219.5q98 -91 214.5 -138t244.5 -47q130 0 248 46.5t215 136.5q100 97 155.5 222t55.5 265q0 139 -55.5 266t-151.5 220q-96 91 -215.5 138.5t-246.5 47.5q-130 0 -250.5 -47.5t-227.5 -149.5q-86 -84 -140.5 -209t-54.5 -266 zM352 714q1 205 140 344.5t345 139.5q207 0 356 -130l-129 -141q-99 77 -227 77q-131 0 -211 -81t-80 -207q1 -136 81 -215.5t211 -79.5t226 77l129 -142q-148 -129 -356 -129q-206 1 -345.5 139.5t-139.5 347.5z" />
<glyph unicode="&#xab;" horiz-adv-x="987" d="M100 479l501 353v-102l-251 -249l251 -250v-101zM450 479l501 353v-102l-251 -249l251 -250v-101z" />
<glyph unicode="&#xad;" horiz-adv-x="900" d="M80 401v199h620v-199h-620z" />
<glyph unicode="&#xae;" horiz-adv-x="1674" d="M94 718q0 143 52.5 276.5t153.5 237.5q102 109 242.5 169.5t297.5 60.5q152 0 291 -60.5t243 -169.5q99 -102 152.5 -237.5t53.5 -276.5q0 -142 -53.5 -275.5t-156.5 -239.5q-105 -110 -243 -168.5t-294 -58.5q-153 0 -289 59.5t-242 169.5q-103 105 -155.5 237 t-52.5 276zM166 718q0 -142 54.5 -265.5t154.5 -219.5q98 -91 214.5 -138t244.5 -47q130 0 248 46.5t215 136.5q100 97 155.5 222t55.5 265q0 139 -55.5 266t-151.5 220q-96 91 -215.5 138.5t-246.5 47.5q-130 0 -250.5 -47.5t-227.5 -149.5q-86 -84 -140.5 -209t-54.5 -266 zM479 272v894h390q313 0 313 -257q0 -194 -165 -247l223 -390h-205l-215 370h-162v-370h-179zM658 809h250q108 1 111 98q-3 88 -109 92h-252v-190z" />
<glyph unicode="&#xb0;" horiz-adv-x="772" d="M60 1197q0 118 84 210.5t218 92.5t218 -93.5t84 -209.5q0 -114 -85 -207.5t-219 -93.5t-217 92t-83 209zM187 1198q0 -80 57 -127.5t119 -47.5t118 47t56 128q0 82 -56 128.5t-118 46.5t-119 -46.5t-57 -128.5z" />
<glyph unicode="&#xbb;" horiz-adv-x="987" d="M100 130v101l251 250l-251 249v102l501 -353zM450 130v101l251 250l-251 249v102l501 -353z" />
<glyph unicode="&#xc0;" horiz-adv-x="1644" d="M58 1l600 1500h300l599 -1499l-319 -1l-90 230h-680l-90 -230h-320zM503 1849l83 157l526 -277l-83 -157zM588 531h450l-222 570z" />
<glyph unicode="&#xc2;" horiz-adv-x="1644" d="M45 3l600 1500h300l599 -1499l-319 -1l-90 230h-680l-90 -230h-320zM504 1751l289 286l285 -287l-126 -125l-160 162l-163 -161zM575 533h450l-222 570z" />
<glyph unicode="&#xc4;" horiz-adv-x="1644" d="M44 2l600 1500h300l600 -1499l-320 -1l-89 230h-681l-89 -230h-321zM523 1660v177h177v-177h-177zM574 532h451l-222 570zM893 1660v177h177v-177h-177z" />
<glyph unicode="&#xc7;" horiz-adv-x="1549" d="M50 753q1 316 216 531q214 216 533 216q321 0 551 -200l-200 -219q-153 120 -351 120q-201 -1 -326 -126q-123 -125 -123 -320q2 -210 125 -332q124 -123 326 -123q201 0 349 119l200 -219q-230 -200 -551 -200q-319 2 -534 215q-215 215 -215 538zM611 -151l2 413h177 l-2 -500l-177 81v6z" />
<glyph unicode="&#xc8;" d="M119 0v1499l1102 1v-280h-802v-320h601v-279h-601v-340h800v-281h-1100zM366 1862l83 156l525 -277l-82 -156z" />
<glyph unicode="&#xc9;" d="M117 0v1500l1102 1v-281h-802v-319h601v-280h-601v-341h800v-280h-1100zM358 1798l568 176l52 -169l-568 -176z" />
<glyph unicode="&#xca;" d="M120 0v1499l1102 1v-280h-802v-320h601v-279h-601v-341h800v-280h-1100zM384 1748l289 287v-1l285 -287l-126 -124l-160 161l-163 -161z" />
<glyph unicode="&#xcb;" d="M110 0v1499l1102 1v-280h-802v-319h601v-280h-601v-341h800v-280h-1100zM387 1656v177h177v-177h-177zM757 1656v177h177v-177h-177z" />
<glyph unicode="&#xce;" horiz-adv-x="600" d="M-14 1756l288 286l1 -1l285 -287l-126 -124l-160 162l-163 -162zM123 0v1501h299v-1501h-299z" />
<glyph unicode="&#xcf;" horiz-adv-x="600" d="M1 1658v176h177v-176h-177zM123 0v1501h298v-1501h-298zM370 1658v176h177v-176h-177z" />
<glyph unicode="&#xd4;" horiz-adv-x="1647" d="M46 750q0 320 215 535t535 215t535 -215t215 -535t-215 -535t-535 -215t-535 215q-215 217 -215 535zM346 750q0 -199 125 -335q124 -135 326 -135q199 0 324 135q125 136 125 335t-125 335q-125 135 -326 135q-200 0 -324 -135q-125 -136 -125 -335zM509 1752l289 286 v-1v1l284 -287l-125 -125l-160 162l-163 -161z" />
<glyph unicode="&#xd6;" horiz-adv-x="1647" d="M47 750q0 320 215 535t535 215t535 -215t215 -535t-215 -535t-535 -215t-535 215q-215 217 -215 535zM347 750q0 -199 125 -335q124 -135 326 -135q199 0 324 135q125 136 125 335t-125 335q-125 135 -326 135q-200 0 -324 -135q-125 -136 -125 -335zM524 1665v177h177 v-177h-177zM894 1665v177h176v-177h-176z" />
<glyph unicode="&#xd9;" horiz-adv-x="1601" d="M98 551v950h300v-870q0 -171 100 -250q101 -80 250 -80t250 80q100 79 100 250v870h300v-950q0 -229 -185 -390q-184 -160 -465 -160t-465 160q-185 161 -185 390zM444 1848l82 156l526 -277l-82 -156z" />
<glyph unicode="&#xdb;" horiz-adv-x="1601" d="M100 550v950h300v-870q0 -170 101 -250q100 -80 249 -80q76 0 138 20t113 60q99 79 99 250v870h300v-950q0 -229 -184 -390q-185 -160 -466 -160q-140 0 -256 39.5t-208 120.5q-186 160 -186 390zM100 550v950h300v-870q0 -170 100 -250t250 -80t250 80t100 250v870h300 v-950q0 -230 -185 -390t-465 -160t-465 160t-185 390zM464 1755l288 286h1l284 -287l-125 -125l-161 162l-163 -161z" />
<glyph unicode="&#xdc;" horiz-adv-x="1601" d="M100 551v950h300v-870q0 -171 100 -250q101 -80 250 -80t250 80q100 79 100 250v870h300v-950q0 -229 -185 -390q-184 -160 -465 -160t-465 160q-185 161 -185 390zM477 1659v177h177v-177h-177zM846 1659v177h177v-177h-177z" />
<glyph unicode="&#xf7;" horiz-adv-x="1108" d="M80 637v160h948v-160h-948zM400 359q0 60 40 100.5t108 40.5q72 0 112 -40.5t40 -100.5t-40 -100t-110 -40t-110 40t-40 100zM400 1059q0 60 40 100.5t108 40.5q72 0 112 -40.5t40 -100.5t-40 -100t-110 -40t-110 40t-40 100z" />
<glyph unicode="&#x2000;" horiz-adv-x="1021" />
<glyph unicode="&#x2001;" horiz-adv-x="2042" />
<glyph unicode="&#x2002;" horiz-adv-x="1021" />
<glyph unicode="&#x2003;" horiz-adv-x="2042" />
<glyph unicode="&#x2004;" horiz-adv-x="680" />
<glyph unicode="&#x2005;" horiz-adv-x="510" />
<glyph unicode="&#x2006;" horiz-adv-x="340" />
<glyph unicode="&#x2007;" horiz-adv-x="340" />
<glyph unicode="&#x2008;" horiz-adv-x="255" />
<glyph unicode="&#x2009;" horiz-adv-x="408" />
<glyph unicode="&#x200a;" horiz-adv-x="113" />
<glyph unicode="&#x2010;" horiz-adv-x="900" d="M80 401v199h620v-199h-620z" />
<glyph unicode="&#x2011;" horiz-adv-x="900" d="M80 401v199h620v-199h-620z" />
<glyph unicode="&#x2012;" horiz-adv-x="900" d="M80 401v199h620v-199h-620z" />
<glyph unicode="&#x2013;" horiz-adv-x="1108" d="M56 399v160h996v-160h-996z" />
<glyph unicode="&#x2014;" horiz-adv-x="2048" d="M0 399v160h2048v-160h-2048z" />
<glyph unicode="&#x2018;" horiz-adv-x="625" d="M229 1241v7q0 242 200 343l50 -90q-81 -31 -111 -120h11q70 0 110 -40t40 -100t-40 -100.5t-108 -40.5q-72 0 -112 40.5t-40 100.5z" />
<glyph unicode="&#x2019;" horiz-adv-x="625" d="M92 1450q0 60 40 100.5t108 40.5q72 0 112 -40.5t40 -100.5v-7q0 -242 -200 -343l-50 90q81 31 111 120h-11q-70 0 -110 40t-40 100z" />
<glyph unicode="&#x201a;" horiz-adv-x="625" d="M212 140q0 60 40 100.5t108 40.5q72 0 112 -40.5t40 -100.5v-7q0 -242 -200 -343l-50 90q81 31 111 120h-11q-70 0 -110 40t-40 100z" />
<glyph unicode="&#x201c;" horiz-adv-x="985" d="M229 1241v7q0 242 200 343l50 -90q-81 -31 -111 -120h11q70 0 110 -40t40 -100t-40 -100.5t-108 -40.5q-72 0 -112 40.5t-40 100.5zM600 1241v7q0 242 200 343l50 -90q-81 -31 -111 -120h11q70 0 110 -40t40 -100t-40 -100.5t-108 -40.5q-72 0 -112 40.5t-40 100.5z" />
<glyph unicode="&#x201d;" horiz-adv-x="985" d="M89 1450q0 60 40 100.5t108 40.5q72 0 112 -40.5t40 -100.5v-7q0 -242 -200 -343l-50 90q81 31 111 120h-11q-70 0 -110 40t-40 100zM460 1450q0 60 40 100.5t108 40.5q72 0 112 -40.5t40 -100.5v-7q0 -242 -200 -343l-50 90q81 31 111 120h-11q-70 0 -110 40t-40 100z " />
<glyph unicode="&#x201e;" horiz-adv-x="985" d="M200 119q0 60 40 100.5t108 40.5q72 0 112 -40.5t40 -100.5v-7q0 -242 -200 -343l-50 90q81 31 111 120h-11q-70 0 -110 40t-40 100zM571 119q0 60 40 100.5t108 40.5q72 0 112 -40.5t40 -100.5v-7q0 -242 -200 -343l-50 90q81 31 111 120h-11q-70 0 -110 40t-40 100z " />
<glyph unicode="&#x2026;" horiz-adv-x="2048" d="M200 140q0 60 40 100.5t108 40.5q72 0 112 -40.5t40 -100.5t-40 -100t-110 -40t-110 40t-40 100zM899 140q0 60 40 100.5t108 40.5q72 0 112 -40.5t40 -100.5t-40 -100t-110 -40t-110 40t-40 100zM1601 140q0 60 40 100.5t108 40.5q72 0 112 -40.5t40 -100.5t-40 -100 t-110 -40t-110 40t-40 100z" />
<glyph unicode="&#x202f;" horiz-adv-x="408" />
<glyph unicode="&#x2039;" horiz-adv-x="676" d="M174 479l353 313h48v-47l-205 -266l205 -266v-47h-48z" />
<glyph unicode="&#x203a;" horiz-adv-x="676" d="M101 166v47l205 266l-205 266v47h48l353 -313l-353 -313h-48z" />
<glyph unicode="&#x205f;" horiz-adv-x="510" />
<glyph unicode="&#x20ac;" horiz-adv-x="1500" d="M-1 561v140h102q-1 26 -1 52q0 24 1 47h-102v140h122q47 196 195 345q215 215 533 215q321 0 551 -200l-200 -219q-153 120 -351 120q-202 -1 -325 -126q-59 -60 -90 -135h566v-140h-598q-2 -22 -2 -45q0 -28 2 -54h598v-140h-566q31 -79 91 -138q124 -123 326 -123 t349 119l200 -219q-229 -200 -551 -200q-318 1 -533 216q-148 147 -195 345h-122z" />
<glyph unicode="&#x25fc;" horiz-adv-x="1000" d="M0 0v1000h1000v-1000h-1000z" />
</font>
</defs>
</svg>
