<?xml version="1.0" standalone="no"?>
<!DOCTYPE svg PUBLIC "-//W3C//DTD SVG 1.1//EN" "http://www.w3.org/Graphics/SVG/1.1/DTD/svg11.dtd" >
<svg xmlns="http://www.w3.org/2000/svg">
<metadata>Generated by IcoMoon</metadata>
<defs>
<font id="weshicons" horiz-adv-x="1024">
<font-face units-per-em="1024" ascent="960" descent="-64" />
<missing-glyph horiz-adv-x="1024" />
<glyph unicode="&#x20;" horiz-adv-x="512" d="" />
<glyph unicode="&#xe600;" glyph-name="boost" horiz-adv-x="2150" d="M1639.185 972.8c-182.272 0-342.050-95.983-432.64-239.411l166.741-167.083c42.223 105.779 145.237 180.873 265.899 180.873 157.969 0 286.481-128.444 286.481-286.413 0-157.935-128.512-286.652-286.481-286.652-77.483 0-147.968 31.13-199.475 81.442l-579.209 579.925c-91.307 85.026-213.845 137.318-348.501 137.318-190.874 0-357.41-105.233-445.44-260.506-33.655-59.392-56.013-125.986-63.556-196.949-0.034-0.58-0.205-0.956-0.205-1.434-1.809-17.442-2.799-35.191-2.799-53.111 0-25.566 2.492-50.449 6.11-74.991 0.171-1.058 0.307-2.082 0.478-3.14 11.059-71.714 36.762-138.411 74.377-197.12 91.068-142.165 250.061-236.749 431.036-236.749 163.738 0 308.941 77.892 402.705 197.803l23.484-18.5 23.484-18.432 9.353-7.407-2.048 16.93-5.052 42.94-3.789 31.846-5.7 48.094-13.039 108.988-1.434 12.527-9.865-1.195-251.529-29.935 11.981-9.421 47.002-37.035c-52.258-67.652-133.461-111.855-225.553-111.855-158.003 0-286.481 128.717-286.481 286.652 0 157.969 128.478 286.413 286.481 286.413 77.551 0 148.036-31.061 199.748-81.271l578.901-579.823c77.79-72.363 178.142-120.559 289.109-133.495 19.524-2.287 39.322-3.823 59.426-3.823 106.53 0 205.414 32.666 287.505 88.61 135.441 92.194 224.563 247.501 224.563 423.39 0 282.146-229.649 512-512.068 512z" />
<glyph unicode="&#xe601;" glyph-name="menu" horiz-adv-x="1536" d="M0-51.2h1535.932v170.701h-1535.932v-170.701zM0 375.467h1535.932v170.667h-1535.932v-170.667zM0 802.099h1535.932v170.701h-1535.932v-170.701z" />
<glyph unicode="&#xe602;" glyph-name="dash" horiz-adv-x="1297" d="M949.658 634.812l-199.68-295.049c0.41-3.55 1.126-7.1 1.126-10.82 0-59.119-48.094-107.281-107.315-107.281s-107.315 48.128-107.315 107.281c0 59.221 48.060 107.349 107.315 107.349 3.618 0 7.168-0.717 10.786-1.161l295.083 199.68zM643.823 972.8c-355.021 0-643.823-288.768-643.823-643.857 0-135.475 43.588-270.473 122.88-380.143l87.006 62.908c-55.671 77.005-89.975 169.028-99.499 263.646h50.586v107.281h-50.927c10.752 107.759 53.521 206.165 118.647 285.662l33.86-33.826 75.878 75.844-33.894 33.826c79.531 65.092 177.937 107.895 285.662 118.647v-50.961h107.315v50.961c107.691-10.752 206.165-53.589 285.628-118.647l-33.86-33.894 75.878-75.844 33.86 33.826c65.058-79.531 107.861-177.903 118.682-285.662h-50.995v-107.281h50.654c-9.66-94.583-43.861-186.641-99.533-263.646l86.972-62.839c79.258 109.67 122.88 244.668 122.88 380.143 0 355.089-288.802 643.857-643.857 643.857z" />
<glyph unicode="&#xe603;" glyph-name="dashboard" horiz-adv-x="1775" d="M1538.458 690.893l-95.471-180.361c91.921-118.477 147.251-266.718 147.251-427.998 0-52.531 42.598-95.13 95.13-95.13s95.13 42.598 95.13 95.13c0.034 235.315-92.399 448.99-242.039 608.358zM1101.619 749.773l152.508 144.452c-111.241 50.074-234.189 78.575-363.861 78.575-490.906 0-890.266-399.36-890.266-890.266 0-52.531 42.598-95.13 95.13-95.13s95.13 42.598 95.13 95.13c0 386.014 313.993 700.006 700.006 700.006 73.66 0 144.589-11.571 211.354-32.768zM1474.014 905.933l-724.992-687.002c-54.989-74.411-40.448-179.302 33.382-235.486 30.583-23.347 66.594-34.645 102.332-34.645 50.381 0 100.147 22.391 133.495 64.99l0.239-0.171 467.593 883.166-12.049 9.148z" />
<glyph unicode="&#xe604;" glyph-name="report" d="M256 461.585c0 130.389 98.065 237.227 223.983 253.167v258.048c-267.708-16.657-479.983-238.831-479.983-511.215 0-178.278 90.999-335.189 228.796-427.145l128.99 223.812c-61.372 46.865-101.786 120.149-101.786 203.332zM714.991 616.038l223.471 129.229c-86.187 129.673-229.854 217.327-394.445 227.533v-258.048c69.7-8.841 130.321-45.329 170.974-98.714zM970.138 689.527l-222.208-128.512c12.868-30.549 20.070-64.171 20.070-99.43 0-141.414-114.79-256.41-256-256.41-35.191 0-68.745 7.134-99.26 20.105l-128.273-222.549c68.608-34.202 145.681-53.931 227.533-53.931 282.726 0 512 229.615 512 512.785 0 82.022-19.661 159.232-53.862 227.942z" />
<glyph unicode="&#xe605;" glyph-name="crm" d="M816.469 207.77c-141.722 51.098-187.017 94.242-187.017 186.539 0 55.433 43.281 37.308 62.259 138.82 7.851 42.086 46.148 0.683 53.385 96.768 0 38.298-20.855 47.821-20.855 47.821s10.615 56.695 14.746 100.318c5.222 54.34-31.71 194.765-228.386 194.765-196.745 0-233.609-140.425-228.454-194.765 4.13-43.622 14.814-100.318 14.814-100.318s-20.855-9.523-20.855-47.821c7.27-96.085 45.534-54.682 53.316-96.768 19.081-101.478 62.327-83.388 62.327-138.82 0-79.633-33.792-122.709-134.144-165.82-3.55-1.502-7.134-3.004-10.786-4.54v0c-12.595-5.154-26.146-10.342-40.653-15.599-0.922-0.341-1.741-0.683-2.662-0.99-35.123-12.8-65.399-25.6-91.136-38.263-76.834-37.82-112.367-73.66-112.367-100.25 0-35.703 0-120.047 0-120.047h1022.601c0 0 0 84.173 0 119.774 0 35.635-63.932 87.927-206.131 139.196z" />
<glyph unicode="&#xe606;" glyph-name="pluie" horiz-adv-x="1214" d="M758.583 100.484c-21.021 0-37.951-16.809-37.951-38.275v-75.093c0-21.143 16.809-38.275 37.951-38.275 20.981 0 37.951 16.768 37.951 38.275v75.093c-0.041 21.143-16.849 38.275-37.951 38.275zM455.134 100.484c-21.021 0-37.951-16.809-37.951-38.275v-75.093c0-21.143 16.849-38.275 37.951-38.275 20.981 0 37.951 16.768 37.951 38.275v75.093c0 21.143-16.849 38.275-37.951 38.275zM910.267 176.347c-20.981 0-37.951-16.809-37.951-38.316v-75.093c0-21.143 16.809-38.316 37.951-38.316 20.981 0 37.951 16.809 37.951 38.316v75.093c-0.041 21.143-16.849 38.316-37.951 38.316zM606.818 176.347c-20.981 0-37.951-16.809-37.951-38.316v-75.093c0-21.143 16.849-38.316 37.951-38.316 20.981 0 37.951 16.809 37.951 38.316v75.093c0 21.143-16.809 38.316-37.951 38.316zM303.409 176.347c-20.981 0-37.951-16.809-37.951-38.316v-75.093c0-21.143 16.849-38.316 37.951-38.316 20.981 0 37.951 16.809 37.951 38.316v75.093c0 21.143-16.849 38.316-37.951 38.316zM1046.277 661.371c-35.116 93.36-125.236 159.744-230.827 159.744-24.342 0-47.794-3.564-70.030-10.085-60.147 97.086-167.683 161.769-290.286 161.769-186.031 0-337.351-148.849-341.279-333.867-68.086-39.41-113.895-113.004-113.895-197.088 0-125.641 101.946-227.547 227.587-227.547h758.543c125.641 0 227.547 102.108 227.547 227.547 0.041 104.863-70.88 193.119-167.359 219.527zM986.251 290.12h-758.745c-83.558 0-151.603 67.964-151.603 151.725 0 71.731 49.94 132.081 117.095 147.755-2.228 13.609-3.281 27.623-3.281 41.84 0 146.621 118.877 265.498 265.498 265.498 119.93 0 221.269-79.508 254.157-188.664 29.162 23.168 65.98 36.979 106.118 36.979 87.851 0 160.23-66.385 169.627-151.725h1.134c83.517 0 151.563-67.924 151.563-151.684 0-83.639-67.843-151.725-151.563-151.725z" />
<glyph unicode="&#xe607;" glyph-name="nuage" horiz-adv-x="1311" d="M1147.051 522.069c0-22.63 18.159-40.96 41.37-40.96h81.135c22.835 0 41.335 18.193 41.335 40.96 0 22.63-18.159 40.926-41.335 40.926h-81.135c-22.869 0.034-41.37-18.125-41.37-40.926zM1129.916 431.65c-7.031 18.671-16.111 36.284-26.863 52.702 1.946 12.356 2.867 24.986 2.867 37.888 0 135.714-110.114 245.726-245.726 245.726-62.805 0-120.115-23.518-163.533-62.259-58.675 39.287-129.161 62.259-205.141 62.259-200.875 0-364.271-160.7-368.572-360.55-73.455-42.53-122.948-122.061-122.948-212.821 0-135.714 110.046-245.76 245.726-245.76h819.234c135.646 0 245.726 110.285 245.726 245.76 0.034 113.254-76.561 208.555-180.77 237.056zM860.194 686.080c75.298 0 138.786-50.825 157.901-120.149-40.141 24.235-87.142 38.195-137.421 38.195-26.249 0-51.644-3.789-75.537-10.889-13.107 21.094-28.16 40.721-45.022 58.675 27.58 21.402 62.327 34.167 100.079 34.167zM1065.097 30.686h-819.439c-90.283 0-163.738 73.387-163.738 163.908 0 77.517 53.965 142.609 126.43 159.573-2.321 14.711-3.55 29.798-3.55 45.193 0 158.379 128.341 286.72 286.686 286.72 129.536 0 238.967-85.914 274.534-203.776 31.505 25.020 71.236 39.936 114.586 39.936 94.857 0 173.056-71.68 183.228-163.84h1.195c90.283 0 163.738-73.387 163.738-163.84 0.034-90.351-73.25-163.874-163.669-163.874zM1121.212 725.163l57.344 57.378c16.179 16.179 16.384 42.086 0.341 58.231-16.043 15.974-41.847 16.111-58.231-0.307l-57.378-57.378c-16.213-16.179-16.35-42.086-0.273-58.231 15.974-15.906 41.779-16.043 58.197 0.307zM860.194 808.96c22.63 0 40.96 18.159 40.96 41.37v81.101c0 22.835-18.159 41.404-40.96 41.404-22.665 0-40.96-18.159-40.96-41.404v-81.101c-0.034-22.869 18.125-41.37 40.96-41.37z" />
<glyph unicode="&#xe608;" glyph-name="soleil" d="M175.588 460.783c0 24.235-19.661 43.863-43.897 43.863h-87.794c-24.201 0-43.897-19.627-43.897-43.863s19.696-43.897 43.897-43.897h87.794c24.235 0 43.897 19.661 43.897 43.897zM219.451 212.079c-12.084 0-23.075-4.915-31.028-12.835l-58.541-58.541c-7.919-7.953-12.835-18.945-12.835-30.994 0-24.235 19.627-43.931 43.863-43.931 12.118 0 23.109 4.949 30.994 12.903l58.541 58.541c7.953 7.885 12.869 18.876 12.869 30.994 0.034 24.235-19.627 43.863-43.863 43.863zM512.051 797.246c24.235 0 43.897 19.661 43.897 43.897v87.726c0 24.27-19.661 43.931-43.897 43.931-24.27 0-43.863-19.661-43.863-43.931v-87.726c-0.034-24.235 19.593-43.897 43.863-43.897zM804.618 709.487c12.084 0 23.109 4.949 30.994 12.835l58.541 58.541c7.919 7.953 12.903 18.945 12.903 31.028 0 24.27-19.661 43.897-43.931 43.897-12.118 0-23.109-4.915-30.994-12.903l-58.541-58.506c-7.919-7.919-12.903-18.91-12.903-30.994 0.068-24.235 19.661-43.897 43.931-43.897zM188.422 722.321c7.953-7.885 18.945-12.835 31.028-12.835 24.235 0 43.863 19.661 43.863 43.897 0 12.084-4.915 23.075-12.8 31.028l-58.541 58.541c-7.953 7.919-18.945 12.835-31.062 12.835-24.235 0-43.863-19.627-43.863-43.897 0-12.084 4.915-23.075 12.835-30.96l58.541-58.609zM980.171 504.68h-87.76c-24.235 0-43.863-19.627-43.863-43.863s19.627-43.897 43.863-43.897h87.76c24.235 0 43.863 19.661 43.863 43.897s-19.661 43.863-43.863 43.863zM835.612 199.245c-7.885 7.919-18.876 12.835-30.994 12.835-24.235 0-43.863-19.627-43.863-43.863 0-12.118 4.915-23.109 12.835-30.994l58.541-58.541c7.953-7.953 18.876-12.903 30.994-12.903 24.235 0 43.931 19.696 43.931 43.931 0 12.084-4.984 23.041-12.903 30.994l-58.541 58.541zM512.051 124.319c-24.27 0-43.863-19.627-43.863-43.863v-87.76c0-24.235 19.593-43.863 43.863-43.863 24.235 0 43.897 19.627 43.897 43.863v87.76c0 24.235-19.661 43.863-43.897 43.863zM512.051 767.993c-169.409 0-307.21-137.801-307.21-307.21 0-169.375 137.801-307.176 307.21-307.176 169.375 0 307.176 137.801 307.176 307.176 0 169.409-137.801 307.21-307.176 307.21zM512.051 241.401c-121.007 0-219.451 98.41-219.451 219.416s98.444 219.451 219.451 219.451 219.416-98.444 219.416-219.451-98.41-219.416-219.416-219.416z" />
<glyph unicode="&#xe609;" glyph-name="emailing" horiz-adv-x="1092" d="M44.476 579.652c-23.654-9.114-40.482-30.447-43.861-55.535-3.345-25.156 7.407-50.108 27.853-64.99l224.461-163.294 797.184 627.166-704.922-694.477 306.859-223.266c19.456-14.199 44.681-18.466 67.857-11.401 23.142 7.031 41.677 24.644 49.937 47.275l328.26 898.389c3.277 9.148 0.922 19.354-6.007 26.18-6.861 6.793-17.067 8.943-26.214 5.427l-1021.406-391.475zM199.612 241.493l1.946-10.411 43.52-238.217c3.277-17.715 15.053-32.495 31.539-39.663 16.452-7.134 35.465-5.598 50.517 4.096 60.655 39.117 139.878 91.068 137.728 94.14l-265.25 190.054z" />
<glyph unicode="&#xe60a;" glyph-name="wbe" horiz-adv-x="1707" d="M1674.069 603.955h-37.274c-15.462 0-27.989-12.561-27.989-27.955v-485.547c0-15.394 12.527-27.955 27.989-27.955h37.274c15.326 0 27.921 12.561 27.921 27.955v485.547c0 15.394-12.595 27.955-27.921 27.955zM27.921 627.575c-15.394 0-27.921-12.527-27.921-27.955v-532.992c0-15.36 12.527-27.955 27.921-27.955h76.015c15.394 0 27.921 12.527 27.921 27.955v532.821c0 15.394-12.527 27.955-27.921 27.955h-76.015v0.171zM1090.321-46.592c62.327 24.201 124.279 49.118 186.47 73.25 5.598 2.116 12.015 2.901 17.92 3.072 46.080 0.205 92.058 0.205 137.933 0.205 47.65 0 78.336 30.583 78.336 78.814v157.662c0 11.298 9.079 20.241 20.207 20.241l19.866 0.512c15.804 0 16.725 6.144 17.203 17.033l0.41 91.546c0 9.114-7.339 16.486-16.452 16.486h-21.333c-11.332 0-20.412 9.148-20.412 20.446l0.683 191.147c0.546 28.331-10.923 47.821-32.597 63.42-37.274 26.863-147.081 104.789-165.001 116.292-12.322 8.055-25.805 11.298-40.858 11.093l-189.338 0.171c-16.213 0-29.184 13.073-29.184 29.184v5.905c0 16.316 13.21 29.559 29.525 29.559h171.657c16.282 0 29.525 13.244 29.525 29.559v34.236c0 16.316-13.278 29.559-29.559 29.559h-569.856c-16.35 0-29.594-13.244-29.594-29.559v-34.236c0-16.282 13.278-29.559 29.594-29.559h185.719c16.35 0 29.594-13.278 29.594-29.559v-6.793c0-16.145-13.073-29.355-29.457-29.184l-187.529 0.717c-35.874 1.092-65.195-11.093-92.467-30.788-39.799-28.843-78.814-58.607-117.862-88.337-9.865-7.543-22.187-11.639-34.611-11.469-37.615 0.375-75.196 0.375-112.879 0-46.729-0.341-77.005-30.447-77.414-77.414l0.546-130.594c0-11.093-8.943-20.207-20.275-20.207h-17.51c-21.333 0-38.537-17.203-38.537-38.537v-206.95c0-21.299 17.203-38.468 38.537-38.468h16.998c11.127 0 20.275-9.011 20.275-20.275 0-29.696-0.205-85.094 0-117.146 0-29.764-0.546-85.641 53.931-85.641h763.938c8.124-0.034 16.555 1.57 23.859 4.608z" />
<glyph unicode="&#xe60b;" glyph-name="web" d="M375.125 953.685l-1.058 0.683c-0.273-0.375-0.41-0.751-0.614-1.058-215.108-60.655-373.453-258.287-373.453-492.476 0-282.317 229.717-512.034 512-512.034 47.548 0 93.389 6.963 137.079 19.149l1.058-0.717c0.341 0.478 0.478 0.853 0.683 1.024 215.074 60.689 373.453 258.321 373.453 492.51 0 282.283-229.751 512.034-512.068 512.034-47.479 0.068-93.355-6.963-137.079-19.115zM336.213 888.115c-31.539-60.348-55.945-124.45-72.875-191.113h-147.934c50.859 85.163 128.137 152.781 220.809 191.113zM89.6 647.236h162.611c-10.274-52.634-15.94-106.667-16.93-161.621h-184.081c3.004 57.242 16.213 111.753 38.4 161.621zM51.132 435.951h184.593c1.809-55.023 7.851-109.158 19.149-161.621h-165.274c-22.187 49.869-35.396 104.448-38.468 161.621zM115.405 224.631h151.586c18.466-68.164 44.681-133.427 78.541-194.662-96.666 37.581-177.391 106.633-230.127 194.662zM487.526-0.273c-24.269 1.263-47.991 3.959-70.997 8.875-42.94 66.594-75.947 139.264-98.202 216.132h169.199v-225.007zM487.526 274.33h-181.999c-11.674 52.395-18.125 106.496-20.207 161.69h202.001v-161.69h0.205zM487.526 485.615h-202.65c1.058 54.989 6.793 109.193 17.613 161.655h185.071v-161.655zM487.526 696.969h-172.919c20.343 75.605 50.995 147.183 91.204 213.333 26.385 6.246 53.658 10.138 81.749 11.674v-225.007zM688.265 33.519c31.539 60.279 55.945 124.518 72.875 191.113h147.934c-50.927-85.231-128.137-152.781-220.809-191.113zM934.878 274.33h-162.543c10.274 52.668 15.94 106.701 16.93 161.69h184.081c-3.072-57.242-16.282-111.821-38.468-161.69zM973.346 485.615h-184.593c-1.809 54.989-7.851 109.193-19.149 161.655h165.274c22.187-49.903 35.396-104.414 38.468-161.655zM909.073 696.969h-151.586c-18.534 68.198-44.749 133.393-78.609 194.628 96.734-37.547 177.459-106.564 230.195-194.628zM536.917 921.907c24.201-1.365 47.923-4.028 70.997-8.909 42.94-66.594 75.947-139.23 98.133-216.098h-169.131v225.007zM536.917 647.236h181.999c11.674-52.361 18.125-106.462 20.139-161.621h-201.933v161.621h-0.205zM536.917 435.951h202.684c-1.126-55.023-6.793-109.158-17.613-161.621h-185.071v161.621zM536.917 224.631h172.919c-20.412-75.639-50.995-147.217-91.204-213.367-26.385-6.212-53.726-10.103-81.749-11.674v225.041h0.034z" />
<glyph unicode="&#xe60c;" glyph-name="trash" horiz-adv-x="751" d="M46.080-27.409c0-13.141 10.172-23.791 22.835-23.791h611.499c12.595 0 22.869 10.65 22.869 23.791v757.385h-657.203v-757.385zM493.329 588.663h104.926v-478.242h-104.926v478.242zM322.15 588.663h104.96v-478.242h-104.96v478.242zM151.040 588.663h104.96v-478.242h-104.96v478.242zM726.46 894.43h-159.471v54.613c0 13.107-10.274 23.757-22.869 23.757h-338.978c-12.595 0-22.801-10.65-22.801-23.757v-54.613h-159.505c-12.595 0-22.835-10.65-22.835-23.791v-60.177c0-13.141 10.24-23.791 22.835-23.791h703.59c12.595 0 22.801 10.65 22.801 23.791v60.177c0.034 13.141-10.172 23.791-22.767 23.791z" />
<glyph unicode="&#xe60d;" glyph-name="plus" d="M1004.612 604.331h-349.082v349.047c0 10.718-8.704 19.422-19.456 19.422h-248.149c-10.752 0-19.456-8.704-19.456-19.422v-349.047h-349.082c-10.684 0-19.388-8.704-19.388-19.456v-248.149c0-10.752 8.704-19.456 19.388-19.456h349.082v-349.047c0-10.718 8.704-19.422 19.456-19.422h248.149c10.752 0 19.456 8.704 19.456 19.422v349.047h349.082c10.684 0 19.388 8.704 19.388 19.456v248.149c0 10.752-8.704 19.456-19.388 19.456z" />
<glyph unicode="&#xe60e;" glyph-name="cross" d="M1017.617 183.33l-277.402 277.47 277.402 277.402c8.465 8.533 8.465 22.391-0.068 30.925l-197.188 197.222c-8.533 8.567-22.391 8.567-30.925 0.034l-277.436-277.402-277.47 277.436c-8.499 8.499-22.323 8.499-30.857-0.034l-197.257-197.257c-8.567-8.533-8.567-22.357-0.034-30.857l277.402-277.47-277.402-277.402c-8.533-8.567-8.533-22.391 0.034-30.925l197.222-197.222c8.533-8.567 22.357-8.567 30.891-0.034l277.47 277.402 277.47-277.47c8.465-8.499 22.323-8.499 30.857 0.034l197.188 197.257c8.567 8.567 8.567 22.391 0.102 30.891z" />
<glyph unicode="&#xe60f;" glyph-name="login" horiz-adv-x="990" d="M745.813 892.177c-3.413 1.877-7.407 2.321-11.093 1.263s-6.827-3.584-8.704-6.963l-63.488-114.859c-3.857-7.031-1.331-15.906 5.734-19.797 109.329-60.382 177.22-175.377 177.22-300.1 0-188.894-153.668-342.596-342.562-342.596-188.86 0-342.562 153.702-342.562 342.596 0 124.723 67.891 239.718 177.22 300.1 7.066 3.891 9.591 12.766 5.734 19.831l-63.454 114.825c-1.843 3.379-4.983 5.905-8.704 6.963s-7.68 0.614-11.093-1.263c-160.393-88.61-260.062-257.365-260.062-440.457 0-277.333 225.587-502.921 502.921-502.921s502.921 225.587 502.921 502.921c0.034 183.091-99.635 351.846-260.028 440.457zM437.316 444.621h131.209c8.055 0 14.575 6.519 14.575 14.575v499.029c0 8.055-6.485 14.575-14.575 14.575h-131.209c-8.055 0-14.609-6.519-14.609-14.575v-499.029c0.034-8.021 6.554-14.575 14.609-14.575z" />
<glyph unicode="&#xe610;" glyph-name="plug" d="M555.554 414.31l-73.694-73.728-90.112 90.112 73.728 73.694c16.35 16.35 16.35 42.94 0 59.255s-42.906 16.35-59.255 0l-73.728-73.728-37.035 37.069c-9.796 9.796-25.737 9.796-35.533 0l-53.487-53.487c-9.83-9.83-9.83-25.771 0-35.567l7.953-7.987-120.866-120.866c-5.598-5.598-8.26-13.551-7.066-21.436l18.603-125.884-97.69-97.69c-9.83-9.83-9.83-25.737 0-35.567l72.294-72.294c9.796-9.796 25.737-9.796 35.533 0l97.724 97.724 125.884-18.637c7.851-1.161 15.804 1.468 21.47 7.1l120.866 120.866 7.953-7.987c9.83-9.796 25.737-9.796 35.567 0l53.453 53.487c9.83 9.83 9.83 25.771 0 35.567l-37.035 37.001 73.728 73.728c16.35 16.35 16.35 42.94 0 59.255s-42.871 16.316-59.255 0zM1016.627 893.167l-72.294 72.26c-9.796 9.83-25.737 9.83-35.533 0l-97.724-97.69-125.884 18.637c-7.851 1.126-15.838-1.468-21.47-7.134l-120.866-120.866-7.953 7.987c-9.83 9.83-25.737 9.83-35.567 0l-53.453-53.453c-9.83-9.83-9.83-25.737 0-35.567l282.658-282.658c9.796-9.83 25.737-9.83 35.533 0l53.487 53.487c9.796 9.796 9.796 25.737 0 35.533l-7.953 7.987 120.866 120.866c5.598 5.598 8.226 13.585 7.066 21.47l-18.603 125.884 97.69 97.69c9.83 9.83 9.83 25.737 0 35.567z" />
<glyph unicode="&#xe611;" glyph-name="chart" horiz-adv-x="922" d="M512 972.8v-448l400.794 200.363c-73.591 146.807-225.382 247.637-400.794 247.637zM448-51.2c247.433 0 448 200.567 448 448 0 72.021-16.998 140.083-47.206 200.363l-400.794-200.363v447.966c-247.398 0-448-200.533-448-447.966s200.602-448 448-448z" />
<glyph unicode="&#xe612;" glyph-name="pie" d="M509.918 66.253c218.829 0 396.288 177.527 396.288 396.527s-177.425 396.561-396.288 396.561v-409.668h-396.015c6.929-212.89 181.555-383.42 396.015-383.42zM445.679 520.533v409.634c-218.863 0-396.288-177.493-396.288-396.493 0-4.403 0.137-8.772 0.273-13.141h396.015zM873.574 822.852c-96.666 96.7-225.178 149.948-361.882 149.948v-44.817c257.468 0 466.944-209.579 466.944-467.183 0-257.57-209.476-467.149-466.944-467.149-257.434 0-466.876 209.579-466.876 467.149h-44.817c0-136.738 53.248-265.318 149.914-362.018 96.597-96.7 225.109-149.982 361.779-149.982 136.704 0 265.216 53.282 361.882 149.982s149.845 225.28 149.845 362.018c0 136.772-53.18 265.353-149.845 362.052z" />
<glyph unicode="&#xe613;" glyph-name="graph" horiz-adv-x="990" d="M907.913 95.846h-767.829v775.134h33.758l-86.938 101.82-86.903-101.82h33.041v-887.125h874.871v-35.055l97.314 90.999-97.314 90.931zM863.642 708.369l-198.212-223.607-106.496 26.522-133.222-110.182-208.998 122.982v-353.212h646.929z" />
<glyph unicode="&#xe614;" glyph-name="graphB" horiz-adv-x="1058" d="M90.931 972.8l-90.931-101.786h34.611v-887.159h915.627v-35.055l101.888 90.999-101.888 90.931v-34.884h-803.635v84.275l79.531 130.526h74.206v5.53l70.315-65.98v-69.734h98.611v98.577h-19.934l66.048 240.026 59.938-175.548h-19.012v-98.611h98.543v70.281l60.006 43.895v-1.911h68.198l53.385-96.188h-6.793v-98.543h98.543v98.543h-31.13l34.065 342.426h40.926v98.543h-98.611v-98.543h31.13l-34.065-342.426h-3.925l-53.316 96.188h0.205v98.577h-98.611v-63.932l-66.014-48.299h-45.739l-60.041 176.094h18.978v98.509h-98.509v-98.509h24.644l-66.185-240.572h-43.554l-78.097 73.318v56.9h-98.543v-87.859l-55.194-90.624v640.239h35.328z" />
<glyph unicode="&#xe615;" glyph-name="graphC" d="M661.094 391.612l250.743-40.926-89.839 237.602-50.517-61.781-542.891 446.293-59.119-71.919 542.993-446.43zM573.201 127.761h127.386v183.74l-127.386 20.821zM891.665 127.761v152.576l-127.351 20.753v-173.329zM509.542 127.761v400.521l-127.42 104.175v-504.695zM318.43 127.761v556.851l-127.351 104.175v-661.026zM0 970.991v-1022.191h1021.542v116.053h-905.489v906.138z" />
<glyph unicode="&#xe616;" glyph-name="offer" d="M927.812 972.8h-288.529c-52.941 0-126.805-30.618-164.215-68.028l-447.010-447.010c-37.41-37.41-37.41-98.611 0-135.987l344.883-344.883c37.478-37.41 98.679-37.41 136.055 0l447.010 446.976c37.41 37.376 67.994 111.275 67.994 164.181v288.563c0 52.873-43.281 96.188-96.188 96.188zM800.017 652.8c-53.009 0-95.983 42.974-95.983 95.983s43.008 95.983 95.983 95.983 95.983-43.008 95.983-95.983c0-53.009-43.008-95.983-95.983-95.983z" />
<glyph unicode="&#xe617;" glyph-name="param" d="M513.741 268.8c-105.984 0-192 86.016-192 192 0 106.018 86.016 192 192 192 106.052 0 192.068-86.016 192.068-192s-86.016-192-192.068-192zM986.795 535.381l-101.478 16.93c-7.339 30.14-18.125 58.948-32.119 85.811l64.99 80.521c13.79 17.033 13.141 41.506-1.399 57.924l-40.346 45.431c-14.677 16.384-38.946 19.866-57.412 8.192l-86.801-54.545c-38.127 26.658-81.408 46.353-128 57.754l-16.998 101.99c-3.482 21.572-22.221 37.41-44.169 37.41h-60.791c-21.879 0-40.653-15.838-44.134-37.444l-17.067-102.025c-38.537-9.421-74.718-24.678-107.657-44.749l-82.534 58.914c-17.783 12.698-42.189 10.718-57.719-4.779l-43.042-42.974c-15.462-15.497-17.442-39.936-4.71-57.719l59.051-82.671c-19.866-32.734-34.987-68.676-44.407-106.871l-102.605-17.135c-21.572-3.516-37.444-22.221-37.444-44.169v-60.757c0-21.948 15.872-40.619 37.478-44.169l102.605-17.135c7.748-31.471 19.012-61.474 33.929-89.327l-64.683-80.077c-13.722-16.998-13.21-41.472 1.399-57.856l40.346-45.431c14.609-16.418 38.878-19.831 57.412-8.158l87.996 55.262c37.274-25.463 79.394-44.203 124.587-55.262l17.067-101.99c3.482-21.606 22.255-37.478 44.134-37.478h60.791c21.948 0 40.653 15.872 44.203 37.478l16.998 101.99c38.059 9.284 73.796 24.269 106.462 43.998l85.948-61.406c17.783-12.732 42.189-10.718 57.719 4.813l43.008 42.94c15.462 15.462 17.545 39.902 4.676 57.685l-61.201 85.811c20.002 32.836 35.123 68.847 44.544 107.247l101.478 16.93c21.606 3.55 37.41 22.221 37.41 44.169v60.757c-0.034 21.914-15.838 40.619-37.513 44.169z" />
<glyph unicode="&#xe618;" glyph-name="modify" d="M536.678 718.95l233.574-233.54-398.199-397.995-233.54 233.574 398.165 397.961zM1016.457 765.133l-200.226 200.26c-9.865 9.899-25.941 9.899-35.806 0l-173.978-173.978 235.861-235.895 174.012 173.978c10.001 9.899 10.001 25.771 0.137 35.635zM0.853-18.978c-2.355-8.875 0.137-18.227 6.485-24.781 6.519-6.519 15.906-9.045 24.781-6.519l276.855 74.65-233.54 233.54-74.581-276.89z" />
<glyph unicode="&#xe619;" glyph-name="graphE" d="M0 972.8v-1024h1023.283v116.258h-907.025v907.742zM412.297 941.158h86.562v-192.307h-86.562v192.307zM383.454 138.308h144.282v831.659h-144.282v-831.659zM230.195 639.625h86.562v-366.182h-86.562v366.182zM201.353 138.308h144.247v530.125h-144.247v-530.125zM680.926 400.896h-86.528v323.721h86.528v-323.721zM565.521 138.308h144.282v615.083h-144.282v-615.083zM865.28 554.121h-86.562v110.933h86.562v-110.933zM749.875 138.308h144.282v555.52h-144.282v-555.52z" />
<glyph unicode="&#xe61a;" glyph-name="graphG" d="M0 972.8v-1024h1023.283v116.258h-907.025v907.742zM466.057 480.188l83.422 154.283 115.063-142.677 112.333 92.228 68.062-75.605 172.646 201.865v213.060l-167.868-230.878-82.227 77.995-123.29-96.7-82.193 112.299-75.401-159.061-140.425 134.144-147.319-59.29v-174.899l160.836 69.905zM846.609 379.017l-78.609 87.313-115.814-95.13-88.61 109.875-79.565-147.217-146.227 160.393-138.923-60.382v-283.546h818.688v428.612z" />
<glyph unicode="&#xe61b;" glyph-name="graphJ" horiz-adv-x="1058" d="M670.276 503.74l-116.395-26.146v136.806c-10.854-2.56-22.357-2.492-33.246 0.068v-136.875l-135.612 30.481c-0.205-5.632-1.024-11.196-2.526-16.623l21.743-21.743 106.086-23.825-19.012-29.184c11.025-2.935 21.060-8.465 29.286-15.906l16.623 25.566 66.799-102.81 50.62-25.6c1.365 0.819 2.765 1.57 4.164 2.287l-94.618 145.647 117.794 26.453c-6.246 9.284-10.342 20.070-11.708 31.403zM815.65 59.017l-79.292 122.027c-8.738-6.929-19.115-11.913-30.447-14.165l84.992-130.833h-507.255l160.119 246.409c-10.342 4.676-19.354 11.708-26.385 20.378l-158.481-243.814-155.375 478.208 138.82-31.164c-0.102 1.434-0.137 2.935-0.137 4.437 0 10.069 2.082 19.661 5.871 28.331l-127.147 28.535 399.701 290.406v-104.38c5.325 1.263 10.889 1.98 16.589 1.98 5.734 0 11.264-0.717 16.589-1.98v104.346l399.701-290.406-144.555-32.427c2.321-7.1 3.584-14.643 3.584-22.494 0-3.721-0.273-7.373-0.819-10.923l159.232 35.738-155.307-478.208zM537.259 972.8l-537.259-396.083 197.291-627.917h679.97l197.257 627.917-537.259 396.083zM683.827 285.457c-10.718-1.536-20.378-6.519-27.716-13.824l-135.509 68.506c0.375 2.389 0.546 4.813 0.546 7.27 0 27.204-22.084 49.289-49.254 49.289-7.919 0-15.428-1.911-22.084-5.222l-94.345 94.481c4.096 7.134 6.417 15.462 6.417 24.303 0 4.915-0.717 9.66-2.082 14.165l149.333 118.101c7.782-5.12 17.067-8.090 27.068-8.090 9.421 0 18.295 2.662 25.805 7.305l132.335-111.309c-2.219-5.666-3.516-11.81-3.516-18.227 0-18.671 10.445-34.953 25.771-43.315l-32.768-183.433zM740.147 561.425c-9.421 0-18.261-2.697-25.805-7.305l-132.335 111.309c2.253 5.632 3.55 11.776 3.55 18.227 0 27.17-22.118 49.254-49.289 49.254s-49.289-22.084-49.289-49.254c0-5.939 1.058-11.605 2.97-16.862l-147.934-117.009c-8.192 6.144-18.364 9.728-29.321 9.728-27.204 0-49.289-22.118-49.289-49.289s22.084-49.289 49.289-49.289c6.997 0 13.687 1.502 19.763 4.164l95.471-95.573c-3.379-6.656-5.257-14.165-5.257-22.118 0-27.17 22.084-49.254 49.289-49.254 13.517 0 25.805 5.461 34.714 14.336l135.543-68.506c-0.375-2.355-0.58-4.813-0.58-7.27 0-27.17 22.084-49.289 49.289-49.289 27.17 0 49.254 22.118 49.254 49.289 0 18.671-10.445 34.953-25.771 43.315l32.802 183.398c23.859 3.413 42.257 23.996 42.257 48.777-0.034 27.136-22.153 49.22-49.323 49.22z" />
<glyph unicode="&#xe61c;" glyph-name="graphI" horiz-adv-x="1229" d="M987.273 261.291c-42.325-24.576-90.283-37.717-139.401-37.717-67.004 0-130.423 23.723-181.385 67.243h-560.435v572.928h954.812v-153.805c46.148-53.453 71.612-121.446 71.612-193.604 0-50.517-12.732-99.806-36.625-143.326l71.168-73.216v618.462c-0.034 30.14-23.757 54.545-53.077 54.545h-1060.898c-29.321 0-53.043-24.405-53.043-54.579v-681.95c0-30.14 23.723-54.579 53.043-54.579h1012.429c-1.57 1.399-3.345 2.56-4.745 4.028l-73.455 75.571zM189.645 82.603h826.573v-133.803h-826.573v133.803zM170.189 590.78h75.605v-236.817h-75.605v236.817zM293.069 661.777h75.605v-307.849h-75.605v307.849zM417.28 747.725h75.605v-393.796h-75.605v393.796zM1038.268 381.406c26.522 39.39 41.131 85.948 41.131 134.895 0 63.59-24.030 123.392-67.721 168.38-43.793 45.056-101.922 69.803-163.806 69.803-61.85 0-119.945-24.747-163.703-69.803-43.793-44.954-67.891-104.755-67.891-168.38 0-63.556 24.132-123.426 67.891-168.414 43.759-45.022 101.854-69.769 163.703-69.769 50.483 0 98.27 16.691 137.933 47.241l177.937-182.955 53.453 54.955-178.927 184.047zM717.722 382.464c-34.748 35.738-53.931 83.251-53.931 133.837s19.149 98.099 53.931 133.837c34.782 35.806 81.033 55.501 130.116 55.501 49.186 0 95.403-19.661 130.185-55.501 34.748-35.738 53.862-83.251 53.862-133.837s-19.149-98.065-53.862-133.803c-34.816-35.772-80.998-55.569-130.185-55.569-49.118 0-95.334 19.729-130.116 55.535z" />
<glyph unicode="&#xe61d;" glyph-name="screen-chart" horiz-adv-x="887" d="M475.682 948.258c0 13.619-10.991 24.542-24.269 24.542-13.551 0-24.439-10.923-24.439-24.542v-31.437h-426.974v-126.123h902.724v126.123h-427.042v31.437zM829.542 249.754v504.354h-756.531v-504.286h332.254v-156.57h-120.081v22.391h-44.646v-166.844h44.681v83.354h336.691v-83.354h44.783v166.844h-44.783v-22.46h-124.518v156.604h332.151zM558.421 601.907h219.238v-50.074h-219.238v50.074zM558.421 509.372h219.238v-50.142h-219.238v50.142zM557.329 411.921h219.204v-50.039h-219.204v50.039zM293.751 322.458c-87.313 0-157.969 70.622-157.969 158.003-0.034 87.313 70.656 158.003 157.969 158.003v-158.003h158.037c0-87.347-70.724-158.003-158.037-158.003zM338.193 523.537v157.901c87.245 0 158.003-70.656 158.003-157.901h-158.003z" />
<glyph unicode="&#xe61e;" glyph-name="graphF" d="M116.258 972.8h-116.258v-1024h1023.283v116.258h-907.025zM192.41 688.811h831.659v-144.247h-831.659v144.247zM192.41 890.709h530.125v-144.247h-530.125v144.247zM192.41 486.946h615.117v-144.282h-615.117v144.282zM192.41 285.013h555.52v-144.213h-555.52v144.213z" />
<glyph unicode="&#xe61f;" glyph-name="graphH" d="M424.96 914.807h174.387v-387.413h-174.387v387.413zM366.831-51.2h290.679v1024h-290.679v-1024zM58.129 661.504h174.353v-297.199h-174.353v297.199zM0-51.2h290.645v770.731h-290.645v-770.731zM791.825 640.922h174.353v-223.437h-174.353v223.437zM733.696-51.2h290.645v750.182h-290.645v-750.182z" />
<glyph unicode="&#xe620;" glyph-name="previous" horiz-adv-x="696" d="M184.422 276.48l327.509-327.68 184.457 184.286-327.748 327.714 327.748 327.68-184.457 184.32-511.932-511.863z" />
<glyph unicode="&#xe621;" glyph-name="next" horiz-adv-x="696" d="M511.966 645.12l-327.509 327.68-184.457-184.286 327.748-327.714-327.748-327.68 184.457-184.32 511.932 511.863z" />
<glyph unicode="&#xe622;" glyph-name="plus2" d="M1024 573.167h-399.633v399.633h-224.734v-399.633h-399.633v-224.87h399.633v-399.497h224.734v399.497h399.633z" />
<glyph unicode="&#xe623;" glyph-name="graphD" d="M0 972.8v-1024h1023.283v116.258h-907.025v907.742zM616.96 387.413l156.672 224.188-54.204 37.888 205.79 96.256-19.524-226.338-54.204 37.854-206.711-295.868-221.286 128.649-164.454-213.299-75.196 57.993 215.279 279.211z" />
<glyph unicode="&#xe624;" glyph-name="task" horiz-adv-x="956" d="M429.022 57.481l-3.755 3.789-24.986 24.917-24.951 24.986h-271.838l0.068 758.17h469.265c23.142-21.743 86.494-80.998 110.865-103.697-0.034-54.17-0.068-288.154-0.068-467.217l103.321 103.355v408.747l-173.363 162.27h-613.513l-0.068-965.257h478.993l-49.971 49.937zM843.401 363.998l-211.422-211.422-134.519 134.417-101.888-101.854 236.407-236.339 313.378 313.378zM197.325 737.86h390.724v-117.658h-390.724v117.658zM197.325 560.435h390.724v-117.623h-390.724v117.623zM197.325 380.587h167.049v-117.658h-167.049v117.658z" />
<glyph unicode="&#xe625;" glyph-name="zoom" d="M998.98 94.857l-222.481 222.481c-1.195 1.195-2.594 2.014-3.789 3.14 43.725 66.389 69.291 145.852 69.291 231.322 0 232.55-188.484 421.001-421.001 421.001s-421.001-188.45-421.001-421.001c0-232.516 188.484-421.001 421.001-421.001 85.504 0 164.966 25.566 231.356 69.325 1.058-1.229 1.946-2.594 3.106-3.789l222.447-222.481c33.417-33.417 87.586-33.417 121.071 0 33.382 33.451 33.382 87.62 0 121.003zM421.001 276.753c-151.893 0-275.046 123.119-275.046 275.046s123.119 275.081 275.046 275.081 275.046-123.119 275.046-275.081c0-151.893-123.153-275.046-275.046-275.046z" />
<glyph unicode="&#xe626;" glyph-name="group" d="M264.158 871.663c0-55.875-45.296-101.171-101.171-101.171s-101.171 45.296-101.171 101.171c0 55.875 45.296 101.171 101.171 101.171s101.171-45.296 101.171-101.171zM50.176 416.085h10.035v-200.636c0-27.58 22.562-50.176 50.142-50.176h105.335c27.58 0 50.176 22.596 50.176 50.176v11.708c-9.216 17.579-15.053 37.615-15.053 58.539v262.451c0 50.995 30.925 95.266 75.23 114.517v20.105c0 27.58-22.562 50.142-50.142 50.142h-225.724c-27.614 0-50.176-22.562-50.176-50.142v-216.542c0-27.58 21.743-50.142 50.176-50.142zM964.676 871.663c0-55.875-45.296-101.171-101.171-101.171s-101.171 45.296-101.171 101.171c0 55.875 45.296 101.171 101.171 101.171s101.171-45.296 101.171-101.171zM699.665 683.554v-20.070c44.305-19.183 75.23-63.522 75.23-114.483v-261.632c0-20.89-5.018-40.96-15.019-58.539v-11.708c0-27.58 22.562-50.176 50.142-50.176h105.335c27.58 0 50.176 22.596 50.176 50.176v200.636h10.001c27.614 0 50.176 22.562 50.176 50.142v215.654c0 27.614-22.562 50.176-50.176 50.176h-225.69c-27.614 0-50.176-22.562-50.176-50.176zM326.827 548.181v0-262.451c0-27.614 22.562-50.176 50.176-50.176h19.217v-236.578c0-27.614 22.562-50.142 50.176-50.142h134.554c27.58 0 50.176 22.528 50.176 50.142v237.397h19.183c27.614 0 50.176 22.562 50.176 50.142v261.666c0 27.614-22.562 50.142-50.176 50.142h-273.34c-28.399 0-50.142-22.562-50.142-50.142zM629.453 756.292c0-64.17-52.020-116.19-116.19-116.19s-116.19 52.020-116.19 116.19c0 64.17 52.020 116.19 116.19 116.19s116.19-52.020 116.19-116.19z" />
<glyph unicode="&#xe627;" glyph-name="tasks" horiz-adv-x="683" d="M638.020 765.133h-73.728v19.183c0 37.717-30.583 68.301-68.301 68.301h-32.597c-0.922 66.662-55.194 120.183-121.856 120.183s-120.934-53.521-121.924-120.183h-32.597c-37.717 0-68.301-30.583-68.301-68.301v-19.183h-73.728c-24.405 0-44.988-19.763-44.988-44.203v-727.893c0-24.439 20.582-44.237 44.988-44.237h593.101c24.474 0 44.954 19.797 44.954 44.237v727.927c0 24.405-20.548 44.169-45.022 44.169zM341.538 908.902c31.437 0 57.105-25.088 58.027-56.286h-116.087c0.956 31.232 26.59 56.286 58.061 56.286zM626.79 3.004h-570.539v708.028h62.43v-49.971h445.611v49.971h62.464l0.034-708.028zM547.738 567.296h-143.599c-22.596 0-40.994-16.828-40.994-39.492s18.398-39.561 40.994-39.561h143.599c22.665 0 40.96 16.896 40.96 39.561s-18.295 39.492-40.96 39.492zM196.437 529.783l-30.822 24.030c-7.612 5.973-18.534 4.983-25.020-2.185l-17.715-19.661c-3.447-3.789-5.12-8.772-4.71-13.892 0.444-5.086 2.935-9.762 6.929-12.868l53.794-42.428c12.937-10.274 31.539-9.182 43.247 2.526l94.242 94.208c4.574 4.574 7.134 10.718 7.134 17.203 0 6.451-2.56 12.663-7.134 17.169l-10.752 10.752c-9.489 9.489-24.883 9.489-34.338 0l-74.854-74.854zM547.738 384.102h-143.599c-22.596 0-40.994-16.896-40.994-39.561 0-22.596 18.398-39.561 40.994-39.561h143.599c22.665 0 40.96 16.964 40.96 39.561s-18.295 39.561-40.96 39.561zM196.437 346.556l-30.822 24.030c-7.612 5.939-18.534 4.949-25.020-2.219l-17.715-19.627c-3.447-3.755-5.12-8.806-4.71-13.926 0.444-5.052 2.935-9.762 6.929-12.868l53.794-42.428c12.971-10.24 31.573-9.114 43.281 2.56l94.276 94.242c4.574 4.574 7.134 10.718 7.134 17.169 0 6.383-2.56 12.663-7.134 17.203l-10.786 10.718c-9.455 9.489-24.849 9.489-34.304 0l-74.923-74.854zM547.738 207.087h-143.599c-22.596 0-40.994-16.896-40.994-39.561s18.398-39.561 40.994-39.561h143.599c22.665 0 40.96 16.896 40.96 39.561s-18.295 39.561-40.96 39.561zM196.437 169.574l-30.822 24.030c-7.612 6.007-18.534 4.983-25.020-2.15l-17.715-19.661c-3.447-3.823-5.12-8.806-4.71-13.926s2.935-9.762 6.929-12.868l53.794-42.496c12.971-10.24 31.573-9.114 43.281 2.56l94.276 94.242c9.489 9.557 9.489 24.849 0 34.372l-10.786 10.752c-4.54 4.642-10.718 7.168-17.135 7.168-6.451 0-12.663-2.526-17.203-7.168l-74.889-74.854z" />
<glyph unicode="&#xe628;" glyph-name="connexion" horiz-adv-x="956" d="M921.6 157.559v265.66h-368.606v332.083h68.745l-137.865 217.498-137.865-217.498h68.745v-332.083h-368.606v-265.66c-28.023-21.197-46.148-54.784-46.148-92.638 0-64.137 51.985-116.122 116.122-116.122s116.122 51.985 116.122 116.122c0 37.888-18.125 71.509-46.217 92.706v125.713h228.659v-125.099c-28.535-21.129-47.002-55.057-47.002-93.286 0-64.137 51.985-116.122 116.122-116.122s116.122 51.985 116.122 116.122c0 38.229-18.466 72.158-47.002 93.286v125.099h228.693v-125.713c-28.058-21.197-46.217-54.784-46.217-92.706 0-64.137 51.951-116.122 116.122-116.122 64.137 0 116.087 51.985 116.087 116.122 0.137 37.854-17.988 71.441-46.012 92.638z" />
<glyph unicode="&#xe629;" glyph-name="money" horiz-adv-x="1161" d="M334.814 378.948c32.393 0 63.693 2.116 93.321 6.007v324.642c-29.628 3.925-60.928 6.007-93.321 6.007-184.934 0-334.814-67.994-334.814-151.859v-32.939c0-83.866 149.879-151.859 334.814-151.859zM334.814 209.408c32.393 0 63.693 2.082 93.321 5.973v95.164c-29.628-3.857-60.928-6.007-93.321-6.007-161.417 0-296.141 51.814-327.817 120.764-4.608-10.035-6.997-20.446-6.997-31.095v-32.939c0-83.866 149.879-151.859 334.814-151.859zM428.134 133.598v7.407c-29.628-3.857-60.928-6.007-93.321-6.007-161.417 0-296.141 51.814-327.817 120.73-4.608-10.035-6.997-20.378-6.997-31.061v-32.973c0-83.9 149.879-151.825 334.814-151.825 37.001 0 72.567 2.697 105.847 7.748-8.26 16.862-12.493 34.679-12.493 53.077v32.905zM817.596 972.8c-184.934 0-334.848-67.994-334.848-151.859v-32.939c0-83.866 149.914-151.859 334.848-151.859s334.814 67.994 334.814 151.859v32.939c0 83.866-149.879 151.859-334.814 151.859zM817.596 561.732c-161.417 0-296.141 51.814-327.817 120.764-4.608-10.035-7.031-20.446-7.031-31.095v-32.939c0-83.866 149.914-151.859 334.848-151.859s334.814 67.994 334.814 151.859v32.939c0 10.65-2.389 21.060-6.997 31.095-31.676-68.949-166.4-120.764-327.817-120.764zM817.596 392.192c-161.417 0-296.141 51.814-327.817 120.73-4.608-10.001-7.031-20.412-7.031-31.095v-32.905c0-83.9 149.914-151.859 334.848-151.859s334.814 67.959 334.814 151.859v32.905c0 10.684-2.389 21.094-6.997 31.095-31.676-68.915-166.4-120.73-327.817-120.73zM817.596 213.504c-161.417 0-296.141 51.814-327.817 120.764-4.608-10.069-7.031-20.48-7.031-31.13v-32.939c0-83.866 149.914-151.859 334.848-151.859s334.814 67.994 334.814 151.859v32.939c0 10.65-2.389 21.060-6.997 31.13-31.676-68.983-166.4-120.764-327.817-120.764zM817.596 43.93c-161.417 0-296.141 51.814-327.817 120.764-4.608-10.035-7.031-20.446-7.031-31.095v-32.939c0-83.866 149.914-151.859 334.848-151.859s334.814 67.994 334.814 151.859v32.939c0 10.65-2.389 21.060-6.997 31.095-31.676-68.949-166.4-120.764-327.817-120.764z" />
<glyph unicode="&#xe62a;" glyph-name="cloud" horiz-adv-x="1604" d="M1477.734 455.953c5.598 27.75 8.567 56.491 8.567 85.982 0 237.943-192.887 430.865-430.865 430.865-176.469 0-328.090-106.155-394.684-258.048-51.2 33.314-112.196 52.907-177.835 52.907-172.578 0-313.515-134.076-325.222-303.65-93.013-42.633-157.696-136.26-157.696-245.282 0-149.094 120.866-269.926 269.995-269.926h426.018v224.085h-112.742l226.099 356.625 226.065-356.625h-112.708v-224.085h425.95c149.129 0 269.995 120.832 269.995 269.926 0 102.4-56.969 191.488-140.937 237.227z" />
<glyph unicode="&#xe62b;" glyph-name="connect" d="M969.796 972.8h-915.422c-22.118 0-41.779-13.141-50.108-33.417-8.533-20.309-3.994-43.52 11.639-59.255l282.419-282.453-149.743-149.743h350.788v-350.686l149.709 149.709 189.577-189.611h-730.044l-0.068 582.554h-108.51v-636.928c0-14.609 5.666-28.228 15.872-38.332 10.24-10.24 23.859-15.838 38.434-15.838h915.456c21.948 0 41.643 13.073 50.142 33.451 8.397 20.343 3.789 43.588-11.81 59.119l-282.283 282.317 149.675 149.709h-350.788v350.686l-149.606-149.641-189.781 189.815h730.214l-0.034-582.588h108.578v636.791c0 14.575-5.666 28.228-15.872 38.4-10.172 10.274-23.825 15.94-38.434 15.94z" />
<glyph unicode="&#xe62c;" glyph-name="transit" d="M248.934 632.559c11.162 0 21.982-1.707 32.119-4.847 38.366 43.008 80.93 82.125 127.010 116.873-1.946 8.124-3.072 16.589-3.072 25.327 0 12.083 2.082 23.62 5.666 34.509-51.575 37.035-107.725 68.096-167.458 92.16-56.013-34.611-104.789-79.701-143.735-132.574 28.911-51.166 63.283-98.85 102.263-142.302 14.302 6.895 30.276 10.854 47.206 10.854zM140.015 523.674c0 15.258 3.209 29.833 8.875 43.042-34.953 38.366-66.628 79.804-94.345 123.904-34.85-69.086-54.545-147.115-54.545-229.786 0-95.778 26.317-185.31 72.055-261.939 16.35 92.126 47.343 179.166 90.214 258.97-13.926 18.295-22.255 41.028-22.255 65.809zM513.946 878.865c28.809 0 54.852-11.23 74.342-29.457 56.832 24.474 116.702 43.213 178.927 55.194-75.162 43.315-162.236 68.198-255.215 68.198-63.386 0-124.075-11.605-180.122-32.666 44.51-21.948 86.869-47.616 126.737-76.493 16.213 9.626 35.123 15.223 55.33 15.223zM676.83 365.807c6.758 14.097 16.418 26.59 28.297 36.523-32.119 98.918-83.081 189.44-148.651 267.264-13.073-5.53-27.443-8.602-42.53-8.602-23.586 0-45.431 7.612-63.283 20.412-39.492-30.003-76.049-63.659-109.261-100.386 10.411-16.657 16.452-36.25 16.452-57.344 0-11.401-1.741-22.323-4.983-32.666 95.573-63.829 205.517-107.622 323.959-125.201zM818.142 218.726c1.536-20.617 2.287-41.404 2.287-62.396 0-37.001-2.355-73.387-6.827-109.124 86.801 63.386 152.917 153.429 186.266 258.116-39.458-9.523-80.009-16.35-121.344-20.343-9.728-29.764-31.915-53.897-60.382-66.253zM651.332 292.591c-126.396 20.924-243.61 69.12-345.566 138.24-16.555-10.172-35.977-16.145-56.832-16.145-7.68 0-15.087 0.819-22.323 2.287-48.811-92.535-80.009-195.789-88.986-305.254 48.777-52.258 108.271-94.413 175.070-122.675 82.91 127.625 198.895 233.165 338.637 303.548zM855.654 840.294c-82.022-7.885-160.393-28.501-233.335-59.46 0.375-3.55 0.546-7.236 0.546-10.889 0-17.203-4.062-33.417-11.162-47.855 72.909-85.606 129.502-185.31 165.239-294.468 44.271-0.785 82.159-27.921 98.475-66.458 49.254 4.983 97.28 14.438 143.497 28.023 3.277 23.45 5.086 47.309 5.086 71.68 0 150.46-64.922 285.764-168.346 379.426zM706.15 234.394c-130.458-61.133-239.548-155.238-318.532-270.268 39.799-9.967 81.442-15.326 124.382-15.326 77.21 0 150.391 17.203 216.064 47.855 10.547 51.61 16.145 104.96 16.145 159.676 0 19.729-0.887 39.287-2.389 58.675-13.141 4.233-25.225 10.82-35.669 19.388z" />
<glyph unicode="&#xe62d;" glyph-name="root" horiz-adv-x="1229" d="M1206.067 39.219h-32.529v218.214c0 15.872-12.868 28.774-28.809 28.774h-203.401c-2.116 2.355-4.54 4.471-7.441 6.11l-286.174 158.652v184.457h237.022c15.906 0 28.774 12.868 28.774 28.74v32.905c0 15.906-12.868 28.774-28.774 28.774h-32.495v218.18c0.034 15.872-12.868 28.774-28.774 28.774h-409.020c-15.906 0-28.774-12.902-28.774-28.774v-218.214h-32.529c-15.872 0-28.774-12.868-28.774-28.774v-32.905c0-15.872 12.902-28.74 28.774-28.74h237.056v-184.457l-286.208-158.652c-2.901-1.638-5.325-3.721-7.441-6.11h-206.507c-15.872 0-28.774-12.902-28.774-28.774v-218.214h-32.461c-15.906 0.034-28.809-12.834-28.809-28.706v-32.905c0-15.872 12.902-28.774 28.809-28.774h531.593c15.906 0 28.809 12.902 28.809 28.774v32.905c0 15.906-12.902 28.774-28.809 28.774h-32.495v218.214c0 15.872-12.902 28.774-28.774 28.774h-87.415l207.189 114.893 207.258-114.893h-90.487c-15.906 0-28.774-12.902-28.774-28.774v-218.214h-32.529c-15.872 0-28.74-12.868-28.74-28.774v-32.905c0-15.872 12.868-28.774 28.74-28.774h531.661c15.872 0 28.74 12.902 28.74 28.774v32.905c0.034 15.872-12.834 28.74-28.706 28.74zM443.187 915.217h351.505v-184.183h-351.505v184.183zM470.323 39.219h-351.471v189.406h351.471v-189.406zM764.45 228.625h351.539v-184.525h-351.539v184.525z" />
<glyph unicode="&#xe62e;" glyph-name="synchro" horiz-adv-x="1331" d="M347.341 511.454c-5.598 0-11.196 2.082-15.497 6.007-15.121 14.131-28.16 25.532-39.936 34.953-51.541 42.462-90.999 57.242-110.729 57.242h-158.413c-12.561 0-22.767 10.411-22.767 22.869v173.909c0 12.22 10.206 22.562 22.767 22.562h156.467c64.717-0.205 129.024-21.914 196.506-66.321 33.553-22.153 67.243-49.254 105.677-85.197 4.403-3.994 7.1-10.001 7.168-15.974 0.205-5.973-2.116-11.981-6.281-16.35-21.982-23.006-43.554-46.148-64.853-68.881-18.466-20.070-36.25-39.151-53.726-57.651-4.437-4.779-10.411-7.168-16.384-7.168zM1044.651-51.2c-3.243 0-6.383 0.58-9.523 2.082-7.953 3.721-13.175 11.674-13.175 20.412v114.995h-112.128c-65.263 0.273-130.389 21.675-198.383 66.014-33.655 22.016-67.311 48.879-105.95 84.48-4.608 4.13-6.997 9.933-7.202 16.111-0.273 6.11 1.877 11.913 6.315 16.452 23.381 24.235 46.387 48.913 68.915 73.284 16.998 18.33 33.382 36.011 49.527 53.146 8.636 8.875 22.767 9.387 32.085 1.058 14.438-13.483 26.999-24.405 38.571-33.382 44.612-36.489 87.211-57.958 114.381-57.958h113.903v123.324c0 8.806 5.188 16.998 13.175 20.651 7.953 3.686 17.579 2.526 24.337-3.072l271.087-229.205c5.188-4.403 8.329-10.65 8.329-17.374s-3.072-13.073-8.329-17.374l-271.087-228.318c-4.267-3.652-9.455-5.325-14.848-5.325zM176.64 86.255h-153.873c-12.561 0-22.767 10.206-22.767 22.835v173.67c0 12.527 10.206 22.733 22.767 22.733h153.941c20.855 0 48.64 10.957 78.916 30.686 32.631 21.197 72.909 55.535 119.296 102.605 29.355 29.15 58.47 60.86 89.395 94.071 60.791 65.946 123.938 134.144 192.307 189.781 60.791 48.981 144.316 105.301 250.402 106.428h114.893v121.003c0 8.943 5.222 16.93 13.21 20.651 7.919 3.55 17.579 2.458 24.337-3.14l271.053-229.137c5.222-4.267 8.329-10.718 8.329-17.476 0-6.69-3.14-12.971-8.329-17.374l-271.053-228.284c-6.758-5.598-16.384-6.997-24.337-3.345-7.953 3.721-13.21 11.947-13.21 20.651v117.009h-114.688c-11.776 0-36.215-3.721-75.947-30.106-32.358-21.094-72.090-55.74-118.511-102.775-28.16-28.535-56.183-58.812-86.050-91.136-62.259-66.935-126.532-136.67-196.745-193.195-61.747-49.015-145.783-105.097-253.235-106.155 0 0 0 0-0.102 0z" />
<glyph unicode="&#xe62f;" glyph-name="tool" d="M28.126 112.469c-37.478-37.478-37.478-98.133 0-135.612 18.739-18.739 43.281-28.058 67.823-28.058 24.61 0 49.118 9.318 67.857 28.058l314.914 314.982-135.714 135.578-314.88-314.948zM815.138 696.149l137.148 70.895 71.851 138.82-66.97 66.935-138.752-71.851-70.997-137.011-166.878-167.049 67.652-67.755zM845.21 332.117l-12.937 1.263c-23.415 0-45.568-4.813-66.253-12.459l-393.728 393.762c7.714 20.719 12.493 42.94 12.493 66.321l-1.297 12.902c-6.758 99.806-88.986 178.893-190.566 178.893-29.525 0-57.173-7.202-82.193-19.183l127.42-127.386c6.69-6.724 11.298-14.677 14.37-23.040 8.397-22.63 3.857-49.084-14.37-67.379-12.493-12.527-28.809-18.773-45.227-18.773-7.543 0-14.985 1.673-22.153 4.369-8.363 3.209-16.316 7.646-23.040 14.438l-127.386 127.351c-11.981-24.986-19.217-52.668-19.217-82.193 0-101.547 79.087-183.808 178.893-190.566l12.902-1.263c23.415 0 45.602 4.779 66.321 12.39l393.626-393.694c-7.543-20.685-12.322-42.871-12.322-66.253l1.331-12.937c6.656-99.874 88.917-178.927 190.464-178.927 29.559 0 57.344 7.134 82.261 19.183l-127.454 127.42c-6.622 6.622-11.298 14.643-14.507 22.972-8.363 22.63-3.823 49.152 14.507 67.482 12.322 12.459 28.877 18.739 45.193 18.739 7.578 0 14.985-1.604 22.255-4.369 8.397-3.14 16.384-7.612 22.972-14.37l127.42-127.454c12.015 25.054 19.183 52.702 19.183 82.261-0.034 101.513-79.155 183.706-178.961 190.498z" />
<glyph unicode="&#xe630;" glyph-name="time" horiz-adv-x="887" d="M664.986 460.8c137.728 87.347 231.014 255.215 231.014 448 0 21.675-1.195 43.042-3.516 64h-889.003c-2.321-20.958-3.482-42.325-3.482-64 0-192.785 93.218-360.653 231.014-448-137.796-87.347-231.014-255.215-231.014-448 0-21.675 1.161-43.042 3.482-64h889.037c2.287 20.958 3.516 42.325 3.516 64-0.034 192.785-93.286 360.653-231.049 448zM95.983 12.8c0 186.948 80.145 345.395 223.983 397.687v100.591c-143.838 52.326-223.983 210.773-223.983 397.722v0h704c0-186.948-80.213-345.395-223.983-397.687v-100.591c143.804-52.292 223.983-210.773 223.983-397.687h-704zM555.588 303.206c-71.68 40.653-75.605 93.355-75.605 125.372v64.239c0 32.017 3.789 84.924 75.742 125.679 38.502 22.357 71.817 56.32 97.041 98.338h-409.566c25.259-42.018 58.607-76.083 97.143-98.406 71.68-40.653 75.639-93.355 75.674-125.372v-64.239c0-32.017-3.789-84.924-75.742-125.679-72.67-42.189-126.771-125.679-143.121-226.338h501.658c-16.35 100.693-70.554 184.252-143.223 226.406z" />
<glyph unicode="&#xe631;" glyph-name="securit" horiz-adv-x="785" d="M640 524.8v192c0 141.141-114.79 256-256 256s-256-114.859-256-256v-192c-70.724 0-128-57.344-128-128v-320c0-70.69 57.276-128 128-128h512c70.656 0 128 57.31 128 128v320c0 70.656-57.344 128-128 128zM416.017 214.596v-105.813c0-17.681-14.336-32.017-32.017-32.017-17.749 0-32.017 14.336-32.017 32.017v105.813c-18.807 11.127-32.017 30.754-32.017 54.204 0 35.396 28.672 64 64 64s64-28.604 64-64c0.034-23.45-13.244-43.076-31.949-54.204zM512 524.8h-256v192c0 70.588 57.412 128 128 128 70.519 0 128-57.412 128-128v-192z" />
<glyph unicode="&#xe632;" glyph-name="securitOpen" d="M768.683 972.8c-141.21 0-256-114.859-256-256v-192h-384.683c-70.724 0-128-57.344-128-128v-320c0-70.69 57.276-128 128-128h512c70.656 0 128 57.31 128 128v320c0 70.451-57.003 127.556-127.317 127.932v192.068c0 70.588 57.412 128 128 128 70.519 0 128-57.412 128-128v-189.918h128v189.918c0 141.141-114.825 256-256 256zM416.017 214.596v-105.813c0-17.681-14.336-32.017-32.017-32.017-17.749 0-32.017 14.336-32.017 32.017v105.813c-18.807 11.127-32.017 30.754-32.017 54.204 0 35.396 28.672 64 64 64s64-28.604 64-64c0.034-23.45-13.244-43.076-31.949-54.204z" />
<glyph unicode="&#xe633;" glyph-name="vault" horiz-adv-x="1092" d="M76.015-9.455c0-23.006 18.705-41.745 41.745-41.745h75.025c23.040 0 41.779 18.739 41.779 41.745v62.191h-158.549v-62.191zM746.121-9.455c0-23.006 18.739-41.745 41.813-41.745h74.991c23.074 0 41.813 18.739 41.813 41.745v62.191h-158.583v-62.191zM851.729 845.585h-721.34v-630.033h721.34v630.033zM491.076 332.356c-80.179 0-149.231 47.616-180.497 116.19-5.837 12.766-10.24 26.249-13.244 40.243h-32.802c-16.452 0-29.867 13.346-29.867 29.798v23.859c0 16.452 13.414 29.798 29.867 29.798h32.802c3.004 14.097 7.543 27.614 13.244 40.243 31.13 68.608 100.318 116.19 180.497 116.19 109.534 0 198.212-88.781 198.212-198.178s-88.815-198.144-198.212-198.144zM604.399 530.671c0-62.586-50.736-113.323-113.323-113.323s-113.323 50.736-113.323 113.323c0 62.586 50.736 113.323 113.323 113.323s113.323-50.736 113.323-113.323zM1035.844 837.257h-53.692v89.020c-0.034 25.668-20.89 46.524-46.558 46.524h-889.071c-25.634 0-46.524-20.855-46.524-46.524v-791.142c0-25.634 20.89-46.49 46.524-46.49h889.037c25.668 0 46.524 20.855 46.524 46.49v88.986h53.692c23.040 0 41.779 18.739 41.779 41.813v74.991c0 23.074-18.739 41.813-41.779 41.813h-53.692v296.004h53.692c23.040 0 41.779 18.739 41.779 41.745v75.059c0.034 22.972-18.705 41.711-41.711 41.711zM130.389 176.674h-4.267c-19.797 0-35.806 16.009-35.806 35.806v636.245c0 19.797 16.009 35.806 35.806 35.806h729.907c19.797 0 35.806-16.009 35.806-35.806v-636.279c0-19.797-16.009-35.806-35.806-35.806l-725.641 0.034z" />
<glyph unicode="&#xe634;" glyph-name="shield" horiz-adv-x="853" d="M427.349 972.8l-427.349-128.99v-322.526c0-209.613 173.261-437.555 427.349-572.484 254.123 134.929 427.383 362.871 427.383 572.45v322.56l-427.383 128.99zM427.349 22.528c-218.283 126.089-362.803 323.277-362.803 498.722v274.637l362.803 109.534v-882.893z" />
<glyph unicode="&#xe635;" glyph-name="star" horiz-adv-x="1092" d="M784.077 326.963l86.938-378.095-332.663 199.578-332.698-199.646 86.938 378.129-292.591 254.805 386.458 34.031 151.859 357.035 151.791-357.035 386.458-34.031-292.489-254.771z" />
<glyph unicode="&#xe636;" glyph-name="starB" horiz-adv-x="1092" d="M538.317 798.379l104.994-246.989 267.401-23.552-202.377-176.265 9.216-39.902 50.927-221.73-230.127 138.138-230.195-138.138 50.995 221.696 9.216 39.902-202.445 176.265 267.401 23.552 16.077 37.683 88.917 209.34zM538.317 972.8l-151.859-357.035-386.458-34.031 292.591-254.805-86.938-378.129 332.663 199.646 332.663-199.578-86.938 378.095 292.523 254.771-386.423 34.031-151.825 357.035z" />
<glyph unicode="&#xe637;" glyph-name="light" horiz-adv-x="649" d="M387.345 557.363l-32.734 65.502-26.931 52.702-26.931-52.702-32.734-65.536-32.802 65.536-52.668-26.897 59.733-118.17 25.737-53.862 26.863 53.862 32.802 65.536 59.665-119.398 25.737 53.862 59.733 118.17-52.668 26.897-32.802-65.502zM580.403 647.475c0 69.461-24.747 128.546-74.274 177.289s-109.056 73.182-178.449 73.182c-69.461 0-128.922-24.405-178.483-73.182s-74.342-107.827-74.342-177.289c0-63.966 21.47-119.74 64.41-167.322 3.14-3.925 7.407-9.353 12.868-16.384 3.857-6.997 8.192-14.814 12.868-23.415 12.459-21.845 23.415-43.315 32.734-64.375 10.138-22.63 19.149-45.636 26.931-69.018 6.281-21.879 9.728-38.639 10.547-50.347h184.934c0.717 11.708 4.267 28.467 10.547 50.347 6.997 23.415 15.599 46.387 25.737 69.018s20.275 43.315 30.413 62.020c4.745 7.817 9.796 15.599 15.189 23.415 4.745 7.817 8.602 13.278 11.742 16.384 44.442 47.582 66.628 104.141 66.628 169.677zM655.326 647.475c0-85.026-28.877-158.754-86.596-221.15-0.785-0.751-2.321-2.731-4.676-5.837-3.925-6.281-7.817-12.902-11.742-19.934-9.318-16.384-18.33-34.714-26.931-54.989-8.533-20.275-15.94-40.55-22.187-60.86-1.604-1.946-2.731-5.427-3.55-10.513-0.717-5.052-1.536-8.363-2.321-9.967-0.717-1.536-1.331-4.062-1.741-7.612s-0.614-5.257-0.614-5.257v-69.666h-334.643v67.925l-0.58 4.062c-0.41 2.731-1.399 7.236-2.935 13.483-1.604 6.281-3.14 12.083-4.676 17.545-6.281 20.343-13.653 40.585-22.255 60.86-8.533 18.739-18.33 37.854-29.252 57.344-4.676 7.817-8.943 14.473-12.868 19.934-0.717 1.536-1.946 3.516-3.55 5.803v1.195c-56.149 61.611-84.207 134.144-84.207 217.634 0 89.737 32.119 166.366 96.529 229.956s141.414 95.369 231.151 95.369 166.741-31.778 231.117-95.369c64.341-63.59 96.529-140.22 96.529-229.956zM209.476 62.327h236.407l10.547 86.596h-258.697l11.742-86.596zM248.081 30.72h159.198c-3.14-23.415-12.117-42.871-26.931-58.539-14.882-15.565-32.427-23.381-52.668-23.381s-37.854 7.817-52.668 23.415c-14.814 15.667-23.825 35.123-26.931 58.505z" />
<glyph unicode="&#xe638;" glyph-name="hour" horiz-adv-x="785" d="M0 593.681c0 209.033 170.086 379.119 379.119 379.119 173.056 0 319.078-116.668 364.373-275.422-8.26-8.977-14.063-20.343-15.701-33.212l-4.13-33.109-7.031-37.478-38.741 0.068c0 164.727-134.042 298.735-298.769 298.735s-298.769-134.007-298.769-298.735c0-111.753 61.815-209.203 152.883-260.471l-58.436-58.402c-104.96 67.55-174.797 185.105-174.797 318.908zM379.119 831.795c-22.187 0-40.175-17.988-40.175-40.209v-197.939c0-22.187 17.954-40.209 40.175-40.209h227.362c22.187 0 40.209 17.988 40.209 40.209s-17.988 40.209-40.175 40.209h-187.153v157.73c-0.034 22.221-18.022 40.209-40.243 40.209zM797.662 654.643c-0.307 10.513-8.636 19.046-19.115 19.558-10.035 0.614-19.627-7.1-20.924-17.579l-4.301-34.27-7.509-40.038c-3.14-13.858-6.349-28.194-12.288-43.793l-9.011-26.351-12.766-28.092c-4.574-11.503-11.469-23.074-18.807-35.362-3.721-6.246-7.509-12.493-11.025-18.91-3.652-4.983-7.305-10.069-10.889-15.189-9.455-13.346-18.364-25.941-30.345-38.468-10.411-12.971-22.869-24.576-36.045-36.83-3.857-3.618-7.748-7.236-11.537-10.854-4.301-3.243-8.533-6.519-12.698-9.796-13.995-10.889-27.17-21.163-42.871-30.208-12.117-8.431-25.975-15.258-39.322-21.845-5.564-2.731-11.093-5.461-16.486-8.26-6.793-2.458-13.449-5.086-19.968-7.748-12.254-4.881-23.791-9.455-36.045-12.186l-26.556-7.339-26.146-4.471c-13.278-2.867-24.951-3.55-36.284-4.198l-21.265-1.604-3.038 0.068v93.73c0 8.124-4.881 15.462-12.39 18.603-7.543 3.072-16.145 1.365-21.914-4.369l-172.885-172.885c-3.755-3.721-5.871-8.875-5.871-14.199s2.116-10.411 5.871-14.199l172.885-172.851c3.857-3.857 9.011-5.905 14.199-5.905 2.594 0 5.222 0.478 7.714 1.502 7.543 3.106 12.39 10.479 12.39 18.569v97.997l37.001 6.793c17.135 3.55 38.434 7.919 58.846 15.531l23.757 7.953 39.424 16.657c16.623 6.554 32.358 15.77 47.616 24.644 6.485 3.823 13.073 7.68 19.763 11.332 0.717 0.444 1.434 0.853 2.116 1.365 5.222 3.755 10.581 7.509 15.94 11.23 16.247 11.264 33.007 22.938 47.377 36.42 17.715 14.097 33.212 30.481 48.162 46.285l10.854 11.435c0.444 0.512 0.887 1.024 1.331 1.57l9.83 12.425c13.414 16.828 27.273 34.304 37.717 52.156 11.742 16.794 20.582 34.27 29.15 51.2 2.935 5.871 5.871 11.674 8.875 17.34 0.375 0.785 0.751 1.57 1.058 2.355 2.662 7.168 5.53 14.199 8.363 21.094 6.246 15.223 12.663 30.993 16.316 46.455l9.25 32.973 5.257 28.979c4.198 19.149 5.427 36.591 6.485 52.053l1.98 26.214-1.229 53.316z" />
<glyph unicode="&#xe639;" glyph-name="pin-paper" horiz-adv-x="922" d="M926.652 740.113c-6.554 62.43-37.001 118.477-85.675 157.867l-27.989 22.665c-41.609 33.621-93.935 52.156-147.456 52.156-71.373 0-137.933-31.71-182.682-86.972l-430.524-532.070c-39.458-48.742-57.583-109.909-50.995-172.271 6.588-62.327 37.069-118.409 85.811-157.867l27.989-22.665c41.54-33.621 93.935-52.156 147.388-52.156 8.26 0 16.623 0.41 24.883 1.297 61.952 6.519 117.76 36.625 156.979 84.617 0.137 0.171 0.205 0.239 290.475 358.912 51.712 63.898 41.779 157.901-22.084 209.613l-14.711 11.878c-26.351 21.367-59.631 33.143-93.628 33.143-45.295 0-87.586-20.139-115.985-55.228l-289.963-358.298c-18.978-23.45-15.292-57.856 8.090-76.834 9.694-7.817 21.879-12.151 34.338-12.151 16.589 0 32.051 7.407 42.496 20.275l289.894 358.263c7.612 9.353 18.876 14.746 30.993 14.746 9.216 0 17.818-3.038 24.986-8.841l14.677-11.878c8.26-6.69 13.414-16.179 14.541-26.761 1.092-10.615-1.98-20.958-8.636-29.184l-289.553-357.854c-23.927-29.559-59.529-46.49-97.655-46.49-28.604 0-56.593 9.899-78.814 27.853l-27.989 22.665c-26.078 21.094-42.359 51.063-45.875 84.412-3.55 33.348 6.144 66.082 27.238 92.092l430.558 532.036c23.859 29.559 59.494 46.49 97.69 46.49 28.604 0 56.593-9.899 78.814-27.887l27.989-22.665c53.794-43.52 62.123-122.709 18.603-176.503-9.182-11.366-13.38-25.6-11.844-40.073 1.502-14.507 8.636-27.58 19.968-36.727 9.66-7.851 21.879-12.151 34.338-12.151v0c16.555 0 32.051 7.373 42.462 20.275 39.39 48.674 57.446 109.841 50.859 172.271z" />
<glyph unicode="&#xe63a;" glyph-name="copy" d="M1020.201 723.638c-13.576 13.477-30.125 20.315-49.284 20.315h-230.070c-17.375 0-35.576-3.964-54.305-11.826v154.558c0 19.225-6.838 35.807-20.348 49.317-13.444 13.444-30.026 20.282-49.218 20.282h-230.037c-16.946 0-35.444-4.129-54.999-12.321-19.687-8.225-35.609-18.333-47.401-30.125l-225.61-225.643c-11.759-11.793-21.9-27.681-30.092-47.269-8.192-19.687-12.321-38.185-12.321-55.065v-371.613c0-19.291 6.838-35.873 20.315-49.284 13.378-13.444 29.993-20.282 49.284-20.282h284.309v-142.765c0-19.225 6.838-35.807 20.315-49.317 13.51-13.477 30.059-20.315 49.284-20.315h530.894c19.225 0 35.807 6.838 49.251 20.348 13.477 13.411 20.315 29.993 20.315 49.251v672.438c0.033 19.225-6.772 35.807-20.282 49.317zM103.82 231.953v353.908h230.037c14.732 0 27.285 5.153 37.624 15.492s15.492 22.858 15.492 37.591v230.037h212.397v-230.070l-174.807-174.708c-10.306-10.306-19.192-24.312-26.558-42.050-7.399-17.672-11.066-33.858-11.066-48.657v-141.543h-283.119zM150.792 656.648l165.359 165.326v-165.326h-165.359zM670.059 609.61v-165.326h-165.326l165.326 165.326zM457.695 373.496h230.037c14.765 0 27.285 5.153 37.624 15.492s15.492 22.825 15.492 37.624v230.037h212.397v-637.093h-495.55v353.941z" />
<glyph unicode="&#xe63b;" glyph-name="watch" d="M512 972.8c-281.6 0-512-230.4-512-512s230.4-512 512-512 512 230.4 512 512c0 281.6-230.4 512-512 512zM512 51.2c-225.28 0-409.6 184.32-409.6 409.6s184.32 409.6 409.6 409.6 409.6-184.32 409.6-409.6-184.32-409.6-409.6-409.6zM537.6 716.8h-76.8v-307.2l266.24-163.806 40.96 66.526-230.4 138.24z" />
<glyph unicode="&#xe63c;" glyph-name="eye" horiz-adv-x="1707" d="M1700.011 509.44c0 0-466.091 463.36-839.202 463.36s-839.236-463.36-839.236-463.36c-28.638-26.863-28.911-70.929 0-97.348 0 0 466.091-463.326 839.236-463.326 373.111 0 839.202 463.326 839.202 463.326 28.399 26.897 28.911 70.758 0 97.348zM864.358 87.723c-205.073 0-371.575 166.263-371.575 371.575s166.263 371.541 371.575 371.541 371.61-166.537 371.61-371.575c-0.034-205.039-166.537-371.541-371.61-371.541zM860.058 699.597c-130.287 0-235.964-106.189-235.964-236.749s105.677-236.783 235.964-236.783c130.253 0 235.964 106.223 235.964 236.783s-105.711 236.749-235.964 236.749zM949.009 462.063c-40.311 0-73.25 32.973-73.25 73.762 0 40.823 32.973 73.762 73.25 73.762s73.25-32.939 73.25-73.762c0-40.823-32.427-73.762-73.25-73.762z" />
<glyph unicode="&#xe63d;" glyph-name="calandar" d="M959.966 563.2h-256v204.8h256v-204.8zM959.966 284.467h-256v210.466h256v-210.466zM959.966 17.067h-256v204.8h256v-204.8zM639.966 563.2h-256v204.8h256v-204.8zM639.966 284.467h-256v210.466h256v-210.466zM639.966 17.067h-256v204.8h256v-204.8zM320 563.2h-256v204.8h256v-204.8zM320 284.467h-256v210.466h256v-210.466zM320 17.067h-256v204.8h256v-204.8zM1022.839 908.083c-2.731 35.157-29.389 64.717-62.874 64.717h-895.966c-33.451 0-60.109-29.559-62.908-64.717h-1.092v-891.017c0-37.683 28.672-68.267 64-68.267h895.966c35.294 0 64 30.583 64 68.267v891.017h-1.126z" />
<glyph unicode="&#xe63e;" glyph-name="folder" horiz-adv-x="1297" d="M512 972.8h-384c-70.383 0-128-57.617-128-128v-768c0-70.383 57.617-128 128-128h1024c70.383 0 128 57.617 128 128v640c0 70.383-57.617 128-128 128h-512l-128 128z" />
<glyph unicode="&#xe63f;" glyph-name="pin" d="M544.017 972.8l-95.983-95.983 95.983-95.983-223.983-256h-224.051l175.991-175.991-271.974-360.687v-39.356h39.39l360.585 272.009 175.991-175.991v223.983l256 223.983 95.983-95.983 96.051 96.017-479.983 479.983zM448 428.783l-64 64 223.983 224.017 64-64-223.983-224.017z" />
<glyph unicode="&#xe640;" glyph-name="printer" horiz-adv-x="1092" d="M273.067 153.566v-204.8h546.133v341.333h-546.133v-136.533zM341.333 221.833h409.6v-68.267h-409.6v68.267zM341.333 85.299h409.6v-68.267h-409.6v68.267zM819.2 767.966v204.8h-546.133v-341.333h546.133zM955.733 767.966h-68.267v-204.8h-682.667v204.8h-68.267c-68.267 0-136.533-68.267-136.533-136.533v-341.333c0-68.267 68.267-136.533 136.533-136.533h68.267v204.8h682.667v-204.8h68.267c68.267 0 136.533 68.267 136.533 136.533v341.333c0 68.267-68.267 136.533-136.533 136.533z" />
<glyph unicode="&#xe641;" glyph-name="phone" horiz-adv-x="580" d="M505.344 972.8h-430.865c-41.199 0-74.479-33.451-74.479-74.615v-874.871c0-41.097 33.28-74.513 74.479-74.513h430.831c41.165 0 74.581 33.417 74.581 74.547v874.837c-0.034 41.165-33.314 74.615-74.547 74.615zM183.569 927.471h212.719c5.359 0 9.694-7.987 9.694-17.988 0-9.933-4.335-17.988-9.694-17.988h-212.719c-5.359 0-9.66 8.055-9.66 17.988 0 10.001 4.301 17.988 9.66 17.988zM289.929 22.391c-26.283 0-47.616 21.333-47.616 47.616 0 26.317 21.402 47.548 47.616 47.548s47.582-21.265 47.582-47.548-21.402-47.616-47.582-47.616zM524.015 185.481h-468.139v661.436h468.139v-661.436z" />
<glyph unicode="&#xe642;" glyph-name="picture" horiz-adv-x="1195" d="M1135.411 769.092c-30.754 30.754-67.857 46.148-111.377 46.148h-137.83l-31.403 83.729c-7.817 20.070-22.050 37.41-42.769 51.985-20.719 14.541-41.95 21.845-63.693 21.845h-315.051c-21.743 0-43.008-7.305-63.727-21.845-20.719-14.575-34.953-31.915-42.769-51.985l-31.403-83.729h-137.83c-43.486 0-80.623-15.36-111.411-46.148s-46.148-67.857-46.148-111.377v-551.356c0-43.486 15.394-80.623 46.182-111.377 30.754-30.822 67.891-46.182 111.377-46.182h866.441c43.486 0 80.589 15.36 111.411 46.182 30.72 30.72 46.148 67.857 46.148 111.377v551.356c-0.034 43.52-15.394 80.623-46.148 111.377zM785.545 187.221c-53.931-53.931-118.852-80.896-194.731-80.896-75.947 0-140.834 26.965-194.799 80.896-53.931 53.965-80.896 118.886-80.896 194.799 0 75.878 26.965 140.8 80.896 194.731 53.965 53.965 118.852 80.93 194.799 80.93 75.878 0 140.8-26.965 194.731-80.93 53.965-53.931 80.93-118.852 80.93-194.731s-26.965-140.834-80.93-194.799zM590.814 559.275c-48.845 0-90.59-17.374-125.269-52.019s-51.985-76.39-51.985-125.201c0-48.845 17.34-90.59 51.985-125.269 34.679-34.645 76.425-51.951 125.269-51.951 48.811 0 90.522 17.34 125.201 51.951 34.679 34.679 51.985 76.425 51.985 125.269 0 48.811-17.34 90.522-51.985 125.201s-76.425 52.019-125.201 52.019z" />
<glyph unicode="&#xe643;" glyph-name="mail" horiz-adv-x="1365" d="M1280 972.8h-1194.667c-47.104 0-85.333-38.229-85.333-85.333v-853.333c0-47.104 38.229-85.333 85.333-85.333h1194.667c47.104 0 85.333 38.229 85.333 85.333v853.333c0 47.104-38.229 85.333-85.333 85.333zM85.333 644.71l327.509-222.618-327.509-327.612v550.229zM145.681 34.133l339.046 339.046 198.144-134.656 197.018 135.714 339.797-340.002-1074.005-0.102zM1280 94.481l-328.909 328.875 328.909 226.167v-555.042zM1280 749.397l-1.809 2.526-595.524-410.146-597.333 406.016v139.674h1194.667v-138.069z" />
<glyph unicode="&#xe644;" glyph-name="mails" horiz-adv-x="1297" d="M1226.547 758.852h-92.467v-67.482h92.467v-109.261l-1.434 2.048-91.034-62.703v-81.852l92.467 63.556v-439.091l-107.998 107.964c-11.059-20.105-27.546-36.557-47.65-47.684l107.895-107.93-849.579-0.102 92.433 92.433h-95.471l-44.715-44.715v44.715h-67.482v-92.433c0-37.274 30.208-67.516 67.482-67.516h945.084c37.274 0 67.516 30.242 67.516 67.516v675.055c-0.034 37.239-30.276 67.482-67.516 67.482zM281.463 162.748h731.102c6.042 0 11.81 1.024 17.374 2.56 23.279 6.212 41.438 24.405 47.65 47.65 1.468 5.53 2.492 11.264 2.492 17.271v675.055c0 37.274-30.242 67.516-67.516 67.516h-945.050c-37.239 0-67.516-30.242-67.516-67.516v-675.055c0-37.274 30.276-67.516 67.516-67.516h213.948zM1012.565 691.371v-413.389l-260.164 260.164 260.164 178.961v-25.737zM830.123 230.298l-714.889-0.068 268.22 268.22 156.74-106.53 155.853 107.315 268.8-268.937h-134.724zM1012.565 796.058l-1.434 2.014-471.108-324.471-472.508 321.195v110.49h945.084v-109.227zM67.516 713.25l259.106-176.128-40.789-40.721-4.335-4.403-213.982-214.016v435.268z" />
<glyph unicode="&#xe645;" glyph-name="talk" horiz-adv-x="1161" d="M1148.518 969.318c-1.297 0.853-2.56 1.638-4.028 2.15-2.014 0.717-4.13 1.331-6.349 1.331h-1118.788c-2.253 0-4.369-0.614-6.349-1.297-2.185-0.751-4.096-1.946-5.871-3.413-4.267-3.55-7.134-8.704-7.134-14.643v-747.247c0-10.684 8.67-19.354 19.354-19.354h598.153v-213.026c0-14.916 9.011-28.331 22.767-34.031 4.54-1.877 9.318-2.799 14.063-2.799 9.557 0 19.012 3.721 26.078 10.786l240.708 239.070h216.986c10.684 0 19.354 8.67 19.354 19.354v747.247c0.034 6.758-3.652 12.425-8.943 15.872zM147.251 609.417c0 60.075 48.708 108.783 108.783 108.783s108.783-48.708 108.783-108.783-48.708-108.783-108.783-108.783-108.783 48.708-108.783 108.783zM477.252 609.417c0 60.075 48.742 108.783 108.749 108.783 60.075 0 108.817-48.708 108.817-108.783s-48.742-108.783-108.817-108.783c-60.006 0-108.749 48.708-108.749 108.783zM916.002 500.634c-60.075 0-108.783 48.708-108.783 108.783s48.708 108.783 108.783 108.783 108.783-48.708 108.783-108.783-48.708-108.783-108.783-108.783z" />
<glyph unicode="&#xe646;" glyph-name="calculate" horiz-adv-x="785" d="M791.723 2.15v917.402c0 29.389-23.859 53.248-53.282 53.248h-685.158c-29.423 0-53.282-23.825-53.282-53.248v-917.504c0-29.389 23.859-53.248 53.282-53.248h685.193c29.389 0.137 53.248 23.859 53.248 53.35zM218.214 71.202c0-14.746-11.947-26.624-26.59-26.624h-61.508c-14.677 0-26.59 11.913-26.59 26.624v61.44c0 14.711 11.947 26.624 26.59 26.624h61.474c14.677 0 26.59-11.947 26.59-26.624v-61.44zM218.214 229.137c0-14.711-11.947-26.624-26.59-26.624h-61.508c-14.677 0-26.59 11.947-26.59 26.624v61.338c0 14.711 11.947 26.624 26.59 26.624h61.474c14.677 0 26.59-11.947 26.59-26.624v-61.338zM218.214 387.072c0-14.711-11.947-26.624-26.59-26.624h-61.508c-14.677 0-26.59 11.947-26.59 26.624v61.474c0 14.677 11.947 26.59 26.59 26.59h61.474c14.677 0 26.59-11.947 26.59-26.59v-61.474zM218.214 545.007c0-14.711-11.947-26.59-26.59-26.59h-61.508c-14.677 0-26.59 11.913-26.59 26.59v61.474c0 14.677 11.947 26.59 26.59 26.59h61.474c14.677 0 26.59-11.947 26.59-26.59v-61.474zM375.057 71.202c0-14.746-11.878-26.624-26.59-26.624h-61.474c-14.677 0-26.59 11.913-26.59 26.624v61.44c0 14.711 11.947 26.624 26.59 26.624h61.474c14.746 0 26.59-11.947 26.59-26.624v-61.44zM375.057 229.137c0-14.711-11.878-26.624-26.59-26.624h-61.474c-14.677 0-26.59 11.947-26.59 26.624v61.338c0 14.711 11.947 26.624 26.59 26.624h61.474c14.746 0 26.59-11.947 26.59-26.624v-61.338zM375.057 387.072c0-14.711-11.878-26.624-26.59-26.624h-61.474c-14.677 0-26.59 11.947-26.59 26.624v61.474c0 14.677 11.947 26.59 26.59 26.59h61.474c14.746 0 26.59-11.947 26.59-26.59v-61.474zM375.057 545.007c0-14.711-11.878-26.59-26.59-26.59h-61.474c-14.677 0-26.59 11.913-26.59 26.59v61.474c0 14.677 11.947 26.59 26.59 26.59h61.474c14.746 0 26.59-11.947 26.59-26.59v-61.474zM532.002 71.202c0-14.746-11.947-26.624-26.658-26.624h-61.338c-14.677 0-26.59 11.913-26.59 26.624v61.44c0 14.711 11.947 26.624 26.59 26.624h61.474c14.677 0 26.59-11.947 26.59-26.624v-61.44h-0.068zM532.002 229.137c0-14.711-11.947-26.624-26.658-26.624h-61.338c-14.677 0-26.59 11.947-26.59 26.624v61.338c0 14.711 11.947 26.624 26.59 26.624h61.474c14.677 0 26.59-11.947 26.59-26.624v-61.338h-0.068zM532.002 387.072c0-14.711-11.947-26.624-26.658-26.624h-61.338c-14.677 0-26.59 11.947-26.59 26.624v61.474c0 14.677 11.947 26.59 26.59 26.59h61.474c14.677 0 26.59-11.947 26.59-26.59v-61.474h-0.068zM532.002 545.007c0-14.711-11.947-26.59-26.658-26.59h-61.338c-14.677 0-26.59 11.913-26.59 26.59v61.474c0 14.677 11.947 26.59 26.59 26.59h61.474c14.677 0 26.59-11.947 26.59-26.59v-61.474h-0.068zM688.879 71.202c0-14.746-11.947-26.624-26.658-26.624h-61.406c-14.746 0-26.658 11.913-26.658 26.624v219.273c0 14.711 11.947 26.624 26.658 26.624h61.372c14.746 0 26.658-11.947 26.658-26.624v-219.273zM688.879 387.072c0-14.711-11.947-26.624-26.658-26.624h-61.406c-14.746 0-26.658 11.947-26.658 26.624v61.474c0 14.677 11.947 26.59 26.658 26.59h61.372c14.746 0 26.658-11.947 26.658-26.59v-61.474zM688.879 545.007c0-14.711-11.947-26.59-26.658-26.59h-61.406c-14.746 0-26.658 11.913-26.658 26.59v61.474c0 14.677 11.947 26.59 26.658 26.59h61.372c14.746 0 26.658-11.947 26.658-26.59v-61.474zM688.879 759.398c0-14.711-11.947-26.624-26.658-26.624h-532.821c-14.677 0-26.59 11.947-26.59 26.624v92.126c0 14.677 11.947 26.59 26.59 26.59h532.787c14.746 0 26.658-11.947 26.658-26.59v-92.126z" />
<glyph unicode="&#xe647;" glyph-name="disturb" horiz-adv-x="546" d="M272.247 819.678c65.673 0 119.091-66.526 119.091-148.343 0-42.189 34.338-76.527 76.561-76.527 42.189 0 76.561 34.338 76.561 76.527 0 166.263-122.129 301.466-272.213 301.466s-272.247-135.202-272.247-301.466l0.614-680.004c0-23.45 19.046-42.53 42.496-42.53h428.339c23.45 0 42.496 19.081 42.496 42.53v432.811c0 23.484-19.081 42.53-42.598 42.53-3.447 0-84.753 0.341-165.581 27.682-101.274 34.236-152.644 93.798-152.644 177.015 0 81.749 53.453 148.309 119.125 148.309z" />
<glyph unicode="&#xe648;" glyph-name="key" d="M701.645 972.8c-178.278 0-322.355-144.145-322.355-322.389 0-37.922 7.578-75.844 18.978-113.766l-398.268-398.234v-189.611h189.645v113.766h113.766v113.766h113.801l170.667 170.667c34.133-11.366 72.021-18.944 113.766-18.944 178.244 0 322.355 144.111 322.355 322.321 0 178.278-144.145 322.423-322.355 322.423zM796.433 631.467c-64.478 0-113.766 49.254-113.766 113.766 0 64.478 49.289 113.766 113.766 113.766 64.512 0 113.801-49.289 113.801-113.766 0-64.512-49.289-113.766-113.801-113.766z" />
<glyph unicode="&#xe649;" glyph-name="pdf" horiz-adv-x="928" d="M382.688 661.728c-2.624 2.464-5.952 4.096-10.24 5.024-2.336 0.544-8.608 1.376-25.792 1.376h-3.488v-89.152h13.76c11.232 0 16.064 0.8 17.92 1.28 3.712 0.928 6.592 2.368 8.8 4.352 1.152 1.056 3.424 3.872 5.6 11.104 1.984 6.496 2.976 15.872 2.976 27.808 0 14.752-1.568 22.656-2.88 26.656-1.696 5.088-3.936 8.992-6.656 11.552zM763.040 948.8h-640.416v-160h-98.624v-344.608h98.624v-503.392h820.992v839.072l-180.576 168.928zM172.16 590.656v-64.448h-58.464v194.816h67.328c29.568 0 39.328-1.696 44.096-2.976 12.32-3.232 22.784-10.272 31.008-20.992 8.224-10.688 12.384-24.352 12.384-40.608 0-12.448-2.4-23.232-7.104-32.096-4.704-8.8-10.848-15.904-18.24-21.024-7.168-4.96-14.624-8.32-22.176-9.984-9.344-1.856-21.792-2.72-38.336-2.72h-10.496zM863.552 21.184c-49.824 0-611.136 0-660.8 0 0 25.44 0 224.32 0 423.328h471.072v348.864h-471.072c0 39.552 0 66.88 0 75.328 49.632 0 508.448 0 528.736 0 13.44-12.704 117.248-109.76 132.128-123.552-0.064-22.848-0.064-672.928-0.064-723.968zM284.672 526.208v194.816h75.040c15.456 0 27.2-1.216 35.872-3.744 12.064-3.552 22.528-9.92 31.104-18.976 8.32-8.8 14.688-19.552 18.976-32.032 4.128-12.128 6.208-27.040 6.208-44.256 0-15.36-1.984-28.896-5.888-40.256-4.896-14.176-12.032-25.92-21.28-34.88-7.296-7.104-17.024-12.64-28.928-16.448-8.928-2.816-20.096-4.192-34.208-4.192h-76.896zM599.104 637.056v-52.896h-71.328v-57.952h-58.496v194.816h141.088v-52.896h-82.592v-31.072h71.328zM199.552 669.152c-2.016 0.352-7.456 0.992-22.72 0.992h-4.672v-27.52h6.88c17.28 0 22.112 1.536 22.912 1.856 2.336 0.896 4 2.144 5.216 3.968 1.248 1.792 1.824 3.872 1.824 6.496 0 4.224-1.344 9.28-2.4 10.4-1.824 2.080-4.064 3.264-7.040 3.808z" />
<glyph unicode="&#xe64a;" glyph-name="doc" horiz-adv-x="922" d="M397.6 624.896c0 18.464-3.872 32.192-11.488 40.768-7.552 8.416-17.376 12.544-30.048 12.544s-22.624-4.16-30.24-12.704c-7.744-8.704-11.712-22.56-11.712-41.088 0-18.208 4.064-32 12.096-40.96 7.872-8.8 17.664-13.088 29.888-13.088 12.192 0 21.92 4.224 29.664 12.96 7.84 8.896 11.84 22.88 11.84 41.568zM763.040 948.8h-640.416v-160h-98.624v-344.608h98.624v-503.392h820.992v839.072l-180.576 168.928zM163.456 526.848h-75.936v194.912h73.984c15.808 0 27.68-1.216 36.32-3.712 11.776-3.52 22.048-9.792 30.464-18.656 8.256-8.704 14.592-19.424 18.848-31.904 4.192-12.224 6.272-27.328 6.272-44.896 0-15.552-1.984-29.248-5.92-40.672-4.832-14.144-12-25.856-21.152-34.752-7.104-6.912-16.672-12.352-28.512-16.128-8.832-2.848-20.096-4.192-34.368-4.192zM863.552 21.184c-49.824 0-611.136 0-660.8 0 0 25.44 0 224.32 0 423.328h471.072v348.864h-471.072c0 39.552 0 66.88 0 75.328 49.632 0 508.448 0 528.736 0 13.44-12.704 117.248-109.76 132.128-123.552-0.064-22.848-0.064-672.928-0.064-723.968zM261.152 623.2c0 19.264 2.976 35.808 8.832 49.12 4.48 9.952 10.56 19.008 18.24 26.88 7.776 8 16.448 14.016 25.76 17.92 12.064 5.088 26.080 7.68 41.696 7.68 28.512 0 51.712-9.088 68.992-26.976 17.248-17.824 25.984-42.656 25.984-73.792 0-30.88-8.672-55.584-25.792-73.344-17.216-17.856-40.32-26.912-68.704-26.912-28.736 0-52.064 9.024-69.216 26.784-17.12 17.696-25.792 42.144-25.792 72.64zM520.192 582.048c6.688-7.872 15.136-11.68 25.888-11.68 7.68 0 14.112 2.368 19.616 7.2 5.632 4.992 9.888 13.344 12.512 24.736l1.888 8.288 50.304-16-1.952-7.264c-5.824-21.184-15.808-37.248-29.632-47.776-13.888-10.496-31.488-15.84-52.384-15.84-25.952 0-47.616 9.056-64.384 26.848-16.672 17.696-25.12 41.952-25.12 72.096 0 31.744 8.512 56.928 25.184 74.848 16.896 18.144 39.264 27.296 66.528 27.296 23.872 0 43.68-7.296 58.816-21.568 9.12-8.608 16-20.896 20.448-36.576l2.24-7.872-51.424-12.288-1.76 7.712c-1.76 7.584-5.184 13.344-10.496 17.632-5.376 4.288-11.744 6.368-19.68 6.368-10.944 0-19.616-3.776-26.432-11.616-6.944-8-10.432-21.92-10.432-41.216-0.032-20.64 3.392-35.232 10.272-43.328zM188.864 667.776c-3.36 3.2-7.616 5.312-12.992 6.464-3.136 0.704-10.528 1.536-28.064 1.536h-8.448v-103.072h19.2c11.712 0 17.312 0.768 19.968 1.44 4.672 1.184 8.352 3.040 11.296 5.696 1.952 1.728 4.736 5.536 7.264 13.76 2.176 7.264 3.328 17.536 3.328 30.56 0 12.96-1.088 22.88-3.264 29.472-2.080 6.144-4.864 10.912-8.288 14.144z" />
<glyph unicode="&#xe64b;" glyph-name="xls" horiz-adv-x="922" d="M515.328 573.888c8.096-6.88 28.16-6.176 34.592-0.768 3.68 3.072 4.128 13.6 4.128 15.36-0.864 2.784-2.368 4.416-7.936 6.4-3.808 1.312-12.672 3.68-26.496 7.104-4.896 1.216-9.44 2.496-13.696 3.872l1.12-6.048c1.536-8.384 4.32-22.496 8.288-25.92zM540.416 657.152c3.296-0.768 6.4-1.536 9.408-2.336l-0.448 2.528c-0.672 3.968-2.112 16.48-5.12 18.816-2.592 2.080-7.712 3.2-14.432 3.2-7.36 0-12.864-8.608-16.448-11.2 0.736-2.464 5.248-5.856 27.040-11.008zM763.040 948.8h-640.416v-160h-98.624v-344.608h98.624v-503.392h820.992v839.072l-180.576 168.928zM160.256 526.848h-70.112l66.24 101.184-60.64 93.632h69.056l27.488-44.032 26.944 44.032h68.64l-60.736-94.816 66.432-100h-70.56l-31.328 48.864-31.424-48.864zM863.552 21.184c-49.824 0-611.136 0-660.8 0 0 25.44 0 224.32 0 423.328h471.072v348.864h-471.072c0 39.552 0 66.88 0 75.328 49.632 0 508.448 0 528.736 0 13.44-12.704 117.248-109.76 132.128-123.552-0.064-22.848-0.064-672.928-0.064-723.968zM439.968 579.648v-52.768h-144.256v193.408h58.496v-140.64h85.76zM475.584 621.632c-13.088 11.712-19.712 26.304-19.712 43.328 0 11.008 3.136 21.44 9.344 30.944 6.208 9.568 15.168 16.896 26.656 21.792 10.72 4.576 23.616 6.912 38.304 6.912 24.32 0 43.264-5.728 56.32-17.024 13.376-11.648 20.512-27.2 21.184-46.272l0.448-11.904-36.448-1.6c3.264-1.312 6.176-2.624 8.736-4 9.952-5.248 17.856-12.544 23.488-21.664 5.76-9.184 8.64-20.48 8.64-33.536 0-12.032-3.36-23.456-10.048-33.952-6.752-10.624-16.352-18.592-28.576-23.68-11.328-4.736-25.408-7.168-41.76-7.168-24.48 0-43.84 6.016-57.6 17.888-13.856 11.968-22.208 29.248-24.8 51.328l-1.408 12.16 47.072 4.608c-8.352 3.488-14.912 7.424-19.84 11.84z" />
<glyph unicode="&#xe64c;" glyph-name="bold" horiz-adv-x="956" d="M859.921 409.463c-39.287 32.256-107.486 59.665-204.629 82.33 90.146 22.665 152.951 53.282 188.791 91.75 35.738 38.537 53.555 82.5 53.555 131.755 0 46.831-14.131 91.068-42.291 132.506-28.126 41.609-66.662 72.738-115.439 93.662-48.845 20.89-131.891 31.334-249.173 31.334h-490.735v-27.955c46.797 0 78.746-4.233 95.915-12.8 17.101-8.533 29.082-19.968 35.84-34.372 6.827-14.404 10.24-49.22 10.24-104.619v-664.439c0-55.364-3.413-90.146-10.24-104.277-6.758-14.131-18.637-25.6-35.43-34.372-16.93-8.772-49.015-13.244-96.256-13.244v-27.921h520.124c144.93 0 255.488 30.481 331.503 91.341 61.986 50.278 92.877 114.005 92.877 191.147 0 72.943-28.228 132.369-84.651 178.176zM380.518 915.388c73.455 0.478 126.839-6.861 160.085-21.948 33.178-15.053 58.743-37.069 76.561-66.048 17.852-28.979 26.795-66.048 26.795-111.377 0-45.363-9.079-82.534-27.204-111.753-18.091-29.184-44.1-51.849-78.097-67.959-33.997-16.077-86.733-24.166-158.208-24.166l0.068 403.251zM651.571 109.363c-17.954-33.963-44.134-59.972-78.131-77.722-33.963-17.818-71.031-26.692-111.377-26.692-27.204 0-47.684 6.861-61.577 20.719-13.824 13.858-20.753 34.372-20.753 61.577l0.785 37.751v328.499c76.971 0.512 134.861-6.861 173.67-21.948 38.741-15.087 69.12-41.677 91.341-79.667 22.153-37.99 33.178-80.862 33.178-128.717 0.068-41.95-9.011-79.838-27.136-113.801z" />
<glyph unicode="&#xe64d;" glyph-name="italic" horiz-adv-x="785" d="M268.083 944.811l8.26 27.989h499.917l-9.796-27.989c-45.329 0-79.94-10.001-103.799-30.208-23.859-20.070-44.919-62.123-63.010-126.054l-187.255-655.462c-13.585-46.319-20.412-77.312-20.412-92.911 0-18.159 7.066-32.256 21.060-42.359 18.057-13.073 52.463-20.105 102.81-21.060l-7.646-27.955h-508.211l8.26 27.921c50.859 0 88.132 9.694 111.787 29.047 23.654 19.456 45.124 61.85 64.205 127.283l188.826 655.497c11.537 40.311 17.34 70.758 17.34 91.341 0 18.637-6.997 33.28-21.060 43.895-14.234 10.547-47.957 17.476-101.274 21.026z" />
<glyph unicode="&#xe64e;" glyph-name="link" d="M374.989 160.358l-51.78-51.473c-44.885-44.544-117.965-44.544-162.85 0-21.572 21.402-33.417 49.869-33.417 80.111s11.878 58.709 33.417 80.111l190.737 189.201c39.492 39.185 113.869 96.905 168.073 43.179 24.883-24.713 65.024-24.542 89.737 0.307 24.713 24.883 24.542 65.024-0.341 89.702-92.126 91.409-228.284 74.513-346.829-43.145l-190.737-189.201c-45.807-45.466-70.997-105.847-70.997-170.155s25.19-124.689 70.963-170.121c47.104-46.729 108.919-70.11 170.803-70.11s123.733 23.381 170.837 70.144l51.883 51.473c24.883 24.678 24.986 64.819 0.307 89.702-24.678 24.815-64.887 24.951-89.805 0.273zM953.003 895.42c-98.918 98.167-237.261 103.526-328.875 12.629l-64.614-64.102c-24.883-24.713-25.020-64.853-0.307-89.702 24.713-24.883 64.853-25.020 89.737-0.307l64.58 64.068c47.445 47.104 109.568 27.58 150.084-12.629 21.606-21.402 33.451-49.869 33.451-80.111s-11.878-58.709-33.417-80.111l-203.503-201.83c-93.047-92.331-136.704-49.015-155.307-30.549-24.883 24.713-65.024 24.542-89.737-0.341-24.713-24.849-24.576-64.99 0.341-89.668 42.701-42.394 91.477-63.42 142.575-63.42 62.566 0 128.683 31.505 191.522 93.901l203.469 201.865c45.807 45.431 70.997 105.847 70.997 170.155 0 64.273-25.19 124.689-70.997 170.155z" />
<glyph unicode="&#xe64f;" glyph-name="paint" d="M987.819 936.619c-25.805 25.805-61.747 38.912-98.133 35.703s-69.495-22.357-90.487-52.326l-139.878-200.124c-39.322-56.218-115.439-72.397-174.217-37.001l-30.857 18.603c-24.508 14.814-55.945 10.991-76.22-9.25-24.303-24.337-24.337-63.829 0-88.132l277.367-277.367c11.639-11.708 27.477-18.295 44.032-18.295 16.521 0 32.358 6.588 44.066 18.33 20.275 20.241 24.098 51.678 9.318 76.186l-18.637 30.857c-35.362 58.743-19.251 134.929 37.035 174.217l200.090 139.913c29.969 20.958 49.084 54.067 52.292 90.453 3.209 36.42-9.865 72.363-35.772 98.236zM9.557 257.399c-12.732-12.766-12.732-33.382 0-46.148l35.123-35.055 113.903 91.648c2.014 1.57 4.881 1.399 6.656-0.41 1.741-1.809 1.809-4.676 0.171-6.588l-94.276-111.138 115.098-115.132 157.184 121.685c1.98 1.57 4.745 1.297 6.485-0.444 1.775-1.809 1.911-4.608 0.341-6.519l-124.791-153.907 37.069-37.069c12.698-12.698 33.348-12.698 46.114 0l196.301 196.369-299.008 299.076-196.369-196.369zM238.353 486.127l299.008-299.042 69.291 69.291-299.008 299.008z" />
<glyph unicode="&#xe650;" glyph-name="code" horiz-adv-x="1877" d="M578.048 59.119l-578.048 315.221v174.592l578.048 313.446v-205.073l-402.773-193.502 402.773-200.772v-203.913zM676.762-51.2l383.317 1024h121.105l-384.205-1024h-120.218zM1310.891 59.119v203.947l402.671 199.168-402.671 197.598v202.65l578.014-313.856v-173.534l-578.014-315.972z" />
<glyph unicode="&#xe651;" glyph-name="call" d="M393.557 339.661c92.023-91.341 198.588-178.62 240.401-136.499 59.904 60.348 96.768 112.845 229.649 6.827 132.915-106.018 31.403-177.391-26.59-235.827-66.935-67.447-317.611-4.745-566.101 241.869-248.491 246.647-313.139 496.845-246.17 564.326 58.027 58.436 128.649 160.461 235.554 28.331 107.042-132.028 54.818-169.301-5.052-229.649-41.813-42.121 46.251-148.002 138.308-239.377zM527.019 775.543c0 0-27.75 4.335-47.206-15.121-20.036-20.002-20.89-54.511 0.205-75.571 12.459-12.459 30.037-15.087 30.037-15.087 34.27-6.417 85.914-17.306 140.834-72.226s65.809-106.53 72.226-140.834c0 0 2.628-17.579 15.087-30.037 21.060-21.060 55.569-20.207 75.571-0.205 19.422 19.422 15.121 47.206 15.121 47.206-10.889 69.393-44.544 141.858-102.263 199.612-57.754 57.754-130.253 91.375-199.612 102.263zM787.456 734.106c100.693-100.727 143.633-214.972 129.673-307.575 0 0-4.881-29.321 14.302-48.503 21.538-21.572 55.706-20.309 75.913-0.171 12.971 13.005 15.804 34.065 15.804 34.065 11.537 80.077-3.004 241.050-159.915 397.961s-317.884 171.418-397.926 159.881c0 0-21.060-2.833-34.065-15.804-20.173-20.173-21.402-54.34 0.171-75.913 19.183-19.149 48.469-14.268 48.469-14.268 92.604 13.961 206.882-28.979 307.575-129.673z" />
<glyph unicode="&#xe652;" glyph-name="full" d="M888.422 161.485l-299.076 299.145 299.554 299.486 115.644-115.712 19.422 327.953-328.090-19.251 115.78-115.78-299.52-299.52-299.895 299.93 115.78 115.78-328.021 19.285 19.285-327.987 115.746 115.712 299.93-299.895-299.52-299.52-115.746 115.78-19.285-328.090 328.055 19.285-115.849 115.814 299.52 299.52 299.145-299.076-115.814-115.849 328.090-19.251-19.285 328.055z" />
<glyph unicode="&#xe653;" glyph-name="facebook" horiz-adv-x="478" d="M103.322 774.451c0-25.805 0-140.971 0-140.971h-103.322v-172.442h103.322v-512.239h212.207v512.273h142.404c0 0 13.346 82.671 19.797 173.056-18.534 0-161.417 0-161.417 0s0 100.284 0 117.862 23.142 41.335 46.012 41.335c22.801 0 70.997 0 115.61 0 0 23.484 0 104.516 0 179.473-59.529 0-127.317 0-157.184 0-222.686 0-217.429-172.578-217.429-198.349z" />
<glyph unicode="&#xe654;" glyph-name="twitter" horiz-adv-x="1263" d="M1260.442 851.661c-46.353-20.548-96.085-34.543-148.412-40.721 53.35 32.017 94.276 82.739 113.664 142.985-50.108-29.662-105.438-51.2-164.284-62.805-47.172 50.347-114.313 81.681-188.689 81.681-142.916 0-258.662-115.814-258.662-258.458 0-20.309 2.253-40.073 6.656-58.948-214.767 10.752-405.367 113.732-532.89 270.131-22.289-38.093-34.987-82.534-34.987-129.911 0-89.737 45.773-168.926 114.995-215.211-42.394 1.434-82.227 13.073-117.111 32.461v-3.209c0-125.269 89.122-229.717 207.394-253.611-21.675-5.871-44.544-9.114-68.13-9.114-16.691 0-32.87 1.707-48.674 4.779 32.939-102.775 128.341-177.527 241.493-179.61-88.474-69.257-200.021-110.524-321.092-110.524-20.924 0-41.506 1.229-61.747 3.55 114.517-73.455 250.368-116.326 396.356-116.326 475.716 0 735.744 394.001 735.744 735.676l-0.785 33.485c50.654 36.386 94.583 81.92 129.161 133.7z" />
<glyph unicode="&#xe655;" glyph-name="google" horiz-adv-x="1058" d="M55.33 717.483c0-86.903 29.013-149.641 86.187-186.505 46.865-30.174 101.274-34.714 129.536-34.714 6.861 0 12.322 0.273 16.213 0.546 0 0-8.977-58.402 34.338-116.122h-1.98c-75.025-0.034-319.625-15.701-319.625-216.815 0-204.595 224.666-215.006 269.722-215.006 3.55 0 5.598 0.068 5.598 0.068 0.512 0 3.721-0.137 9.216-0.137 28.945 0 103.697 3.618 173.124 37.41 90.078 43.725 135.817 119.774 135.817 225.997 0 102.741-69.632 163.84-120.457 208.486-30.993 27.204-57.788 50.688-57.788 73.557 0 23.279 19.524 40.789 44.339 62.942 40.073 35.874 77.824 86.903 77.824 183.33 0 84.787-10.991 141.722-78.746 177.835 7.066 3.618 32.017 6.246 44.373 7.953 36.727 4.983 90.453 10.684 90.453 40.653v5.837h-267.605c-2.662-0.068-270.541-10.001-270.541-255.317zM487.185 193.058c5.12-81.783-64.853-142.199-169.95-149.879-106.803-7.817-194.662 40.277-199.782 121.993-2.492 39.253 14.78 77.79 48.572 108.407 34.338 31.061 81.408 50.21 132.608 53.999 6.076 0.375 12.049 0.614 17.988 0.614 98.85 0 165.751-58.027 170.564-135.134zM417.348 773.461c26.283-92.331-13.38-188.86-76.527-206.677-7.27-2.048-14.78-3.072-22.357-3.072-57.856 0-115.2 58.539-136.431 139.162-11.913 45.329-10.957 84.924 2.662 122.982 13.38 37.478 37.444 62.737 67.618 71.27 7.305 2.082 14.848 3.106 22.391 3.106 69.905 0.034 114.825-28.979 142.643-126.771zM868.181 572.416v174.524h-110.558v-174.524h-174.524v-110.524h174.524v-174.558h110.558v174.558h174.558v110.524h-174.558z" />
<glyph unicode="&#xe656;" glyph-name="instagram" d="M977.749 972.8h-931.533c-25.532 0-46.217-20.617-46.217-46.182v-931.703c0-25.395 20.685-46.114 46.217-46.114h931.499c25.566 0 46.285 20.719 46.285 46.148v931.669c0 25.566-20.719 46.182-46.251 46.182zM512 639.488c98.679 0 178.654-80.009 178.654-178.688 0-98.748-80.009-178.654-178.654-178.654-98.714 0-178.62 80.009-178.62 178.654 0 98.714 79.906 178.688 178.62 178.688zM896 76.8h-768v448h84.309c-4.437-20.617-6.929-42.018-6.929-64 0-169.131 137.557-306.654 306.62-306.654 169.131 0 306.654 137.523 306.654 306.654 0 21.982-2.526 43.383-6.929 64h84.275v-448zM896 652.8h-192v192h192v-192z" />
<glyph unicode="&#xe657;" glyph-name="pnterest" horiz-adv-x="785" d="M792.030 688.094c-27.921 202.377-229.683 305.357-444.928 281.225-170.086-19.046-339.661-156.535-346.726-353.246-4.335-120.081 29.73-210.193 144.009-235.452 49.493 87.518-15.974 106.735-26.146 170.086-41.95 259.311 299.008 436.292 477.525 255.181 123.665-125.474 42.189-511.181-157.013-471.006-190.805 38.332 93.389 345.327-58.88 405.538-123.733 49.050-189.474-149.811-130.799-248.661-34.304-169.882-108.442-329.865-78.438-542.959 97.314 70.519 130.116 205.722 157.047 346.726 48.913-29.73 75.025-60.587 137.353-65.434 229.99-17.681 358.468 229.581 326.997 458.001z" />
<glyph unicode="&#xe658;" glyph-name="map" horiz-adv-x="683" d="M338.705 972.8c-186.743 0-338.705-151.962-338.705-338.705 0-75.23 48.026-197.837 146.842-374.921 69.871-125.235 138.65-229.683 141.517-234.018l50.347-76.356 50.347 76.322c2.901 4.369 71.68 108.817 141.517 233.984 98.816 177.084 146.876 299.725 146.876 374.955 0 186.778-151.962 338.739-338.739 338.739zM338.705 460.8c-96.939 0-175.548 78.609-175.548 175.582s78.609 175.582 175.582 175.582 175.616-78.609 175.616-175.582-78.677-175.582-175.65-175.582z" />
<glyph unicode="&#xe659;" glyph-name="social" d="M828.587 321.98c-55.603 0-104.858-25.020-138.991-63.829l-321.502 164.147c2.833 12.493 5.018 25.19 5.018 38.571 0 13.961-2.423 27.204-5.598 40.209l319.386 165.342c34.133-40.482 84.617-66.662 141.722-66.662 103.151 0 186.675 83.456 186.675 186.607 0.034 102.946-83.456 186.436-186.641 186.436-102.98 0-186.539-83.49-186.539-186.505 0-13.21 2.116-25.805 4.949-38.093l-320.41-165.82c-34.202 39.424-83.934 65.024-140.117 65.024-103.151 0.034-186.539-83.524-186.539-186.573 0-103.083 83.388-186.573 186.539-186.573 56.934 0 107.213 26.044 141.449 66.287l320.034-163.396c-3.379-13.483-5.973-27.273-5.973-41.813 0-103.049 83.558-186.573 186.539-186.573 103.151 0 186.641 83.524 186.641 186.573 0.034 103.151-83.422 186.641-186.641 186.641z" />
<glyph unicode="&#xe65a;" glyph-name="paypal" d="M920.132 768.273c16.213-30.549 24.269-68.403 24.269-113.801 0-103.185-43.452-186.368-130.321-249.549-86.903-63.283-208.282-94.788-364.237-94.788h-36.489c-27.477 0-54.852-21.606-61.065-47.855l-43.861-186.914c-6.076-26.419-33.553-47.991-60.996-47.991h-79.838l-7.168-30.549c-6.178-26.487 11.196-48.026 38.639-48.026h127.932c27.477 0 54.921 21.538 60.996 47.991l43.861 186.88c6.212 26.317 33.587 47.855 61.065 47.855h36.523c155.921 0 277.299 31.539 364.203 94.788 86.903 63.215 130.355 146.432 130.355 249.583 0 45.363-8.055 83.217-24.269 113.801-16.179 30.31-39.663 55.091-70.281 74.035-3.277 1.946-5.905 2.662-9.318 4.54zM228.796 153.941l43.861 186.914c6.212 26.317 33.587 47.889 61.065 47.889h36.489c155.955 0 277.367 31.505 364.237 94.754 86.869 63.215 130.321 146.364 130.321 249.583 0 45.397-8.055 83.251-24.303 113.801-16.145 30.345-39.629 55.091-70.246 74.001-31.403 19.183-68.233 32.495-110.933 40.311-42.769 7.714-92.809 11.605-150.357 11.605h-266.411c-27.511 0-54.921-21.47-61.201-47.889l-180.053-770.935c-6.212-26.419 11.162-47.991 38.605-47.991h127.932c27.443-0.034 54.921 21.538 60.996 47.957zM333.312 601.259l38.434 163.669c6.281 26.317 33.724 47.855 61.065 47.855h41.882c48.811 0 85.811-8.158 110.592-24.542 24.815-16.213 37.274-41.131 37.274-74.957 0-51.2-19.319-90.692-57.719-118.443-38.468-27.682-91.921-41.677-161.007-41.677h-31.71c-27.477 0.034-44.851 21.709-38.81 48.094z" />
<glyph unicode="&#xe65b;" glyph-name="visa" horiz-adv-x="1434" d="M1172.685 536.405l29.013-144.998h-84.48l55.467 144.998zM1445.683 852.617v-783.667c0-66.389-53.794-120.149-120.183-120.149h-1205.316c-66.389 0-120.183 53.726-120.183 120.149v783.667c0 66.389 53.794 120.183 120.183 120.183h1205.316c66.355 0 120.183-53.794 120.183-120.183zM326.11 434.347l-34.338 174.148c0 0-15.497 37.786-55.808 37.786-40.277 0-157.559 0-157.559 0s200.875-61.338 247.706-211.934zM385.502 263.27l154.999 383.863h-109.022l-93.218-273.34c0 0-5.359 23.279-7.612 37.717-53.077 118.921-139.196 162.543-139.196 162.543l81.783-310.784h112.265zM683.827 647.134h-103.049l-60.45-383.795h101.786l61.713 383.795zM969.489 388.983c0 97.587-141.346 104.653-141.346 148.207 0 22.323 17.681 38.878 68.335 38.878 32.939 0 70.656-24.815 70.656-24.815l16.452 84.787c0 0-48.23 18.876-95.403 18.876-107.179 0-162.475-53.009-162.475-120.081 0-121.276 141.244-104.653 141.244-167.014 0-10.615-8.294-35.328-67.004-35.328-58.914 0-97.792 22.391-97.792 22.391l-17.579-81.34c0 0 37.683-22.323 110.729-22.323 73.045 0.034 174.387 56.525 174.182 137.762zM1320.107 263.27l-78.882 383.863h-107.179l-167.151-383.863h101.137l20.992 54.784h127.454l10.991-54.784h92.638z" />
<glyph unicode="&#xe65c;" glyph-name="card" horiz-adv-x="1434" d="M1321.609 972.8h-1208.798c-62.327 0-112.811-50.517-112.811-112.845v-227.806h1434.419v227.806c0 62.327-50.483 112.845-112.811 112.845zM0 61.542c0-62.259 50.483-112.811 112.811-112.811h1208.798c62.327 0 112.845 50.517 112.845 112.811v450.731h-1434.453v-450.731zM1051.58 286.14c23.040 0 44.271-7.748 61.269-20.651 17.033 12.937 38.229 20.651 61.303 20.651 55.842 0 101.103-45.261 101.103-101.137s-45.261-101.137-101.103-101.137c-23.074 0-44.271 7.748-61.303 20.651-16.998-12.937-38.229-20.651-61.269-20.651-55.842 0-101.137 45.261-101.137 101.137s45.295 101.137 101.137 101.137zM164.011 147.934c0 8.397 6.793 15.189 15.223 15.189h234.803c8.397 0 15.223-6.793 15.223-15.189v-46.319c0-8.397-6.827-15.258-15.223-15.258h-234.803c-8.431 0-15.223 6.861-15.223 15.258v46.319z" />
<glyph unicode="&#xe65d;" glyph-name="dollar" horiz-adv-x="1126" d="M856.576 918.63c128.41-102.98 212.343-269.551 212.343-457.865 0-188.245-83.934-354.884-212.343-457.83 168.209 84.002 284.194 257.399 284.194 457.83s-116.019 373.828-284.194 457.865zM1024.034 460.766c0 282.317-229.683 512.034-512 512.034s-512.034-229.683-512.034-512.034 229.683-511.966 512.034-511.966 512 229.649 512 511.966zM512.034 83.456c-208.077 0-377.31 169.267-377.31 377.31s169.233 377.31 377.31 377.31c208.009 0 377.276-169.267 377.276-377.31s-169.233-377.31-377.276-377.31zM681.233 469.914c-21.402 17.92-62.635 28.604-123.733 31.983l-18.364 0.683v121.719l12.937-0.034c45.090 0 67.618-18.022 67.618-54.135l0.307-8.806h79.497v11.162c0 47.821-11.332 80.452-33.997 98.065-22.63 17.579-64.717 26.351-126.362 26.351v47.377h-55.433v-47.343c-64.444 0-108.578-9.25-132.335-27.546-23.723-18.398-35.703-52.463-35.703-102.263 0-51.405 11.81-86.426 35.499-105.165 23.689-18.671 67.857-28.023 132.54-28.023v-131.857l-12.117 0.341c-33.143 0-54.477 4.335-64.137 13.005-9.523 8.67-14.268 28.058-14.268 57.993v8.397h-82.227l-0.307-16.589c0-49.152 11.776-83.593 35.294-103.424 23.552-19.831 64.341-29.764 122.231-29.764l15.531-0.307v-54.477h55.433v54.477l16.964 0.341c58.129 0 98.918 10.411 122.266 31.061 23.279 20.787 34.953 56.798 34.953 108.203 0 47.787-10.718 80.657-32.085 98.577zM483.772 505.242c-7.646 0.444-11.742 0.649-12.151 0.649-48.503 0-72.67 20.173-72.67 60.518 0 38.571 24.303 57.856 73.045 57.856l11.81 0.341v-119.364zM551.014 302.012h-11.844v128.785c37.274 0 61.679-3.925 73.421-11.81s17.579-24.201 17.579-49.050c0-45.261-26.419-67.925-79.155-67.925z" />
<glyph unicode="&#xe65e;" glyph-name="check" horiz-adv-x="1356" d="M1104.486 972.8l-521.388-521.352-331.776 331.435-251.324-251.221 583.1-582.861 144.691 144.896 61.679 61.508 566.409 566.511z" />
<glyph unicode="&#xe65f;" glyph-name="arrow" horiz-adv-x="1500" d="M1500.433 699.29l-273.579 273.51-476.672-476.638-476.604 476.604-273.579-273.579 750.455-750.353z" />
<glyph unicode="&#xe660;" glyph-name="refresh" horiz-adv-x="887" d="M444.553 115.985c-152.883-0.239-277.060 123.529-277.367 276.412-0.239 150.153 119.091 272.521 268.186 277.129l0.273-162.748 305.493 233.54-306.244 232.482 0.205-135.919c-241.459-4.813-435.507-202.206-435.098-444.757 0.444-245.282 199.612-443.733 444.86-443.324 232.38 0.41 422.229 179.302 441.242 406.665h-167.697c-18.261-134.997-133.769-239.206-273.852-239.479z" />
<glyph unicode="&#xe661;" glyph-name="transfert" horiz-adv-x="859" d="M331.644 327.317v385.387h188.515l-260.063 260.096-260.096-260.096h188.515v-385.387zM661.966 195.188v385.387h-143.129v-385.387h-188.515l260.096-260.063 260.063 260.063z" />
<glyph unicode="&#xe662;" glyph-name="switch" horiz-adv-x="1365" d="M1194.667 460.8v-85.333c0-47.002-38.332-85.333-85.333-85.333h-597.538l0.205 170.667-341.333-256 341.333-256-0.205 170.667h597.538c141.21 0 256 114.995 256 256v85.333h-170.667zM170.667 546.133c0 47.138 38.298 85.333 85.333 85.333h597.333v-170.667l340.992 256-340.992 256v-170.667h-597.333c-141.21 0-256-114.654-256-256v-85.333h170.667v85.333z" />
<glyph unicode="&#xe663;" glyph-name="potion" horiz-adv-x="853" d="M820.019 126.464l-269.312 504.457v256.102h26.624c11.81 0 21.333 9.557 21.333 21.333v43.11c0.034 11.81-9.489 21.333-21.299 21.333h-324.915c-11.776 0-21.333-9.523-21.333-21.333v-43.11c0-11.776 9.523-21.333 21.333-21.333h24.405v-256.171l-247.91-502.17c-63.351-99.362-19.251-179.883 98.577-179.883h597.299c117.828 0 160.461 79.531 95.198 177.664zM353.382 593.135l8.772 17.852v276.036h103.219v-277.504l10.069-18.876 115.439-216.132h-345.429l107.93 218.624z" />
<glyph unicode="&#xe664;" glyph-name="filter" d="M512 972.8c-282.761 0-512-71.68-512-160.017v-95.983l384-384v-320c0-35.362 57.31-64 128-64s128 28.638 128 64v320l384 384v95.983c0 88.337-229.239 160.017-512 160.017zM94.379 833.946c23.962 13.653 57.617 26.658 97.314 37.547 87.893 24.030 201.66 37.308 320.307 37.308s232.414-13.278 320.341-37.342c39.697-10.854 73.318-23.859 97.314-37.547 15.804-9.011 24.303-16.589 28.262-21.129-3.959-4.574-12.493-12.186-28.262-21.197-23.962-13.653-57.617-26.59-97.314-37.478-87.927-24.030-201.694-37.308-320.341-37.308s-232.414 13.278-320.341 37.342c-39.697 10.854-73.318 23.791-97.28 37.444-15.804 9.011-24.337 16.657-28.262 21.197 3.925 4.54 12.459 12.151 28.262 21.163z" />
<glyph unicode="&#xe665;" glyph-name="tabletGraph" horiz-adv-x="785" d="M135.68-51.2h521.25c74.786 0 135.68 60.928 135.68 135.748v752.538c0 74.854-60.86 135.714-135.68 135.714h-521.25c-74.82 0-135.68-60.86-135.68-135.714v-752.572c0-74.786 60.86-135.714 135.68-135.714zM396.288-7.543c-29.355 0-53.248 23.791-53.248 53.214s23.859 53.282 53.248 53.282c29.389 0 53.282-23.825 53.282-53.282 0-29.389-23.859-53.214-53.282-53.214zM123.324 837.086c0 6.793 5.53 12.356 12.322 12.356h521.25c6.724 0 12.322-5.564 12.322-12.356v-673.417c0-6.758-5.53-12.356-12.322-12.356h-521.216c-6.793 0-12.322 5.598-12.322 12.356v673.417zM193.434 494.319h95.983v-285.321h-95.983v285.321zM351.471 632.081h95.983v-423.083h-95.983v423.083zM503.194 796.74h95.983v-587.742h-95.983v587.742z" />
<glyph unicode="&#xf000;" glyph-name="uniF000" d="M970.857 866.514q0-20-24.571-44.571l-361.143-361.143v-438.857h182.857q14.857 0 25.714-10.857t10.857-25.714-10.857-25.714-25.714-10.857h-512q-14.857 0-25.714 10.857t-10.857 25.714 10.857 25.714 25.714 10.857h182.857v438.857l-361.143 361.143q-24.571 24.571-24.571 44.571 0 13.143 10.286 20.857t21.714 10 24.571 2.286h804.571q13.143 0 24.571-2.286t21.714-10 10.286-20.857z" />
<glyph unicode="&#xf001;" glyph-name="uniF001" d="M877.714 844.8v-640q0-28.571-19.429-50.857t-49.143-34.571-59.143-18.286-55.143-6-55.143 6-59.143 18.286-49.143 34.571-19.429 50.857 19.429 50.857 49.143 34.571 59.143 18.286 55.143 6q60 0 109.714-22.286v306.857l-438.857-135.429v-405.143q0-28.571-19.429-50.857t-49.143-34.571-59.143-18.286-55.143-6-55.143 6-59.143 18.286-49.143 34.571-19.429 50.857 19.429 50.857 49.143 34.571 59.143 18.286 55.143 6q60 0 109.714-22.286v552.571q0 17.714 10.857 32.286t28 20.286l475.429 146.286q6.857 2.286 16 2.286 22.857 0 38.857-16t16-38.857z" />
<glyph unicode="&#xf002;" glyph-name="uniF002" horiz-adv-x="951" d="M658.286 497.371q0 105.714-75.143 180.857t-180.857 75.143-180.857-75.143-75.143-180.857 75.143-180.857 180.857-75.143 180.857 75.143 75.143 180.857zM950.857 21.943q0-29.714-21.714-51.429t-51.429-21.714q-30.857 0-51.429 21.714l-196 195.429q-102.286-70.857-228-70.857-81.714 0-156.286 31.714t-128.571 85.714-85.714 128.571-31.714 156.286 31.714 156.286 85.714 128.571 128.571 85.714 156.286 31.714 156.286-31.714 128.571-85.714 85.714-128.571 31.714-156.286q0-125.714-70.857-228l196-196q21.143-21.143 21.143-51.429z" />
<glyph unicode="&#xf003;" glyph-name="uniF003" d="M950.857 113.371v438.857q-18.286-20.571-39.429-37.714-153.143-117.714-243.429-193.143-29.143-24.571-47.429-38.286t-49.429-27.714-58.571-14h-1.143q-27.429 0-58.571 14t-49.429 27.714-47.429 38.286q-90.286 75.429-243.429 193.143-21.143 17.143-39.429 37.714v-438.857q0-7.429 5.429-12.857t12.857-5.429h841.143q7.429 0 12.857 5.429t5.429 12.857zM950.857 713.943v14t-0.286 7.429-1.714 7.143-3.143 5.143-5.143 4.286-8 1.429h-841.143q-7.429 0-12.857-5.429t-5.429-12.857q0-96 84-162.286 110.286-86.857 229.143-181.143 3.429-2.857 20-16.857t26.286-21.429 25.429-18 28.857-15.714 24.571-5.143h1.143q11.429 0 24.571 5.143t28.857 15.714 25.429 18 26.286 21.429 20 16.857q118.857 94.286 229.143 181.143 30.857 24.571 57.429 66t26.571 75.143zM1024 735.086v-621.714q0-37.714-26.857-64.571t-64.571-26.857h-841.143q-37.714 0-64.571 26.857t-26.857 64.571v621.714q0 37.714 26.857 64.571t64.571 26.857h841.143q37.714 0 64.571-26.857t26.857-64.571z" />
<glyph unicode="&#xf004;" glyph-name="uniF004" d="M512 21.943q-14.857 0-25.143 10.286l-356.571 344q-5.714 4.571-15.714 14.857t-31.714 37.429-38.857 55.714-30.571 69.143-13.429 78.857q0 125.714 72.571 196.571t200.571 70.857q35.429 0 72.286-12.286t68.571-33.143 54.571-39.143 43.429-38.857q20.571 20.571 43.429 38.857t54.571 39.143 68.571 33.143 72.286 12.286q128 0 200.571-70.857t72.571-196.571q0-126.286-130.857-257.143l-356-342.857q-10.286-10.286-25.143-10.286z" />
<glyph unicode="&#xf005;" glyph-name="uniF005" horiz-adv-x="951" d="M950.857 603.086q0-12.571-14.857-27.429l-207.429-202.286 49.143-285.714q0.571-4 0.571-11.429 0-12-6-20.286t-17.429-8.286q-10.857 0-22.857 6.857l-256.571 134.857-256.571-134.857q-12.571-6.857-22.857-6.857-12 0-18 8.286t-6 20.286q0 3.429 1.143 11.429l49.143 285.714-208 202.286q-14.286 15.429-14.286 27.429 0 21.143 32 26.286l286.857 41.714 128.571 260q10.857 23.429 28 23.429t28-23.429l128.571-260 286.857-41.714q32-5.143 32-26.286z" />
</font>
</defs>
</svg>
