<?xml version="1.0" standalone="no"?>
<!DOCTYPE svg PUBLIC "-//W3C//DTD SVG 1.1//EN" "http://www.w3.org/Graphics/SVG/1.1/DTD/svg11.dtd" >
<svg xmlns="http://www.w3.org/2000/svg">
<metadata>Generated by IcoMoon</metadata>
<defs>
<font id="terminal" horiz-adv-x="1024">
<font-face units-per-em="1024" ascent="960" descent="-64" />
<missing-glyph horiz-adv-x="1024" />
<glyph unicode="&#x20;" horiz-adv-x="512" d="" />
<glyph unicode="&#xe600;" glyph-name="bed" horiz-adv-x="1584" d="M1482.411 770.458c-56.661 0-101.205-44.544-101.205-101.171v-255.010h-1170.739v457.353c0 56.661-44.544 101.171-105.233 101.171s-105.233-44.51-105.233-101.171v-821.623c0-56.661 44.544-101.205 105.233-101.205s105.233 44.544 105.233 101.205v117.35h1170.739v-117.35c0-56.661 44.544-101.205 101.205-101.205s101.205 44.544 101.205 101.205v619.247c0 56.661-44.544 101.205-101.205 101.205zM578.799 636.86c0-80.476-65.239-145.715-145.715-145.715s-145.715 65.239-145.715 145.715c0 80.476 65.239 145.715 145.715 145.715s145.715-65.239 145.715-145.715zM756.873 491.179h409.839c72.841 0 129.536 60.723 129.536 129.502 0 72.875-56.695 129.502-129.536 129.502h-409.839c-72.875 0-129.536-60.723-129.536-129.502s60.723-129.502 129.536-129.502z" />
<glyph unicode="&#xe601;" glyph-name="diamond" horiz-adv-x="1065" d="M854.596 972.8h-643.755l-210.842-305.971 532.685-718.029 532.753 718.029-210.842 305.971zM972.766 690.79h-217.395l83.012 195.277 134.383-195.277zM800.939 910.199l-85.811-201.83-135.1 201.83h220.911zM674.236 690.79h-262.349l122.061 209.271 140.288-209.271zM489.028 910.199l-114.586-196.642-106.871 196.642h221.457zM229.171 889.037l107.725-198.246h-244.258l136.533 198.246zM92.706 646.895h263.714l124.689-523.332-388.403 523.332zM401.51 646.895h290.816l-157.798-558.353-133.018 558.353zM593.374 135.817l144.452 511.044h234.803l-379.255-511.044z" />
<glyph unicode="&#xe602;" glyph-name="goggle" horiz-adv-x="2022" d="M1639.834 838.519l-156.74 54.477c-306.449 106.394-637.406 106.394-943.855 0l-156.706-54.477c-113.732-39.458-189.952-158.345-189.952-295.799v-261.257c0-161.451 104.585-293.717 243.575-307.61l195.072-19.695c89.975-9.114 179.644 16.043 255.795 71.168l103.083 74.581c12.39 9.045 28.979 8.875 41.267-0.239l101.069-74.923c66.867-49.664 144.247-75.947 223.812-75.947 13.039 0 26.18 0.717 39.287 2.116l192.99 21.333c137.66 15.223 241.254 147.388 241.254 307.473v263.031c0.034 137.421-76.151 256.307-189.952 295.765zM1698.338 279.723c0-80.93-52.531-147.831-122.197-155.477l-193.092-21.299c-63.351-6.929-126.362 10.82-179.473 50.278l-101.069 75.025c-27.511 20.343-59.358 31.164-92.023 31.164-32.017 0-63.249-10.411-90.283-29.969l-103.185-74.615c-51.917-37.513-113.084-54.579-174.387-48.503l-195.243 19.695c-70.281 7.066-123.324 73.933-123.324 155.546v261.257c0 69.495 38.81 129.604 96.256 149.606l156.945 54.443c281.737 97.826 586.308 97.826 868.011 0l157.047-54.443c57.549-20.036 96.188-80.111 96.188-149.606v-263.1h-0.171zM654.336 160.222l52.463-4.471c12.937-1.092 25.805-0.922 38.298-0.273v575.795c-31.3-6.417-61.030-13.961-90.761-22.596v-548.454zM397.585 512.717v-181.999c0-84.002 65.229-154.112 149.709-161.28l25.634-2.15v517.7l-58.47-17.203c-69.154-20.514-116.873-83.558-116.873-155.068zM0 466.807v-118.306c0-82.5 57.958-149.402 128.341-149.402v417.075c-70.417-0.068-128.341-66.97-128.341-149.367zM1893.99 616.107v-417.075c70.451 0 128.341 66.867 128.341 149.402v118.238c0 82.534-57.856 149.436-128.341 149.436z" />
<glyph unicode="&#xe603;" glyph-name="hotel" horiz-adv-x="544" d="M272.213 819.678c65.673 0 119.125-66.526 119.125-148.343 0-42.223 34.338-76.561 76.527-76.561 42.223 0 76.595 34.338 76.595 76.561 0 166.229-122.129 301.466-272.247 301.466s-272.213-135.236-272.213-301.5l0.614-680.004c0-23.415 19.046-42.496 42.496-42.496h428.305c23.484 0 42.53 19.081 42.53 42.496v432.845c0 23.45-19.081 42.53-42.598 42.53-3.447 0-84.787 0.307-165.581 27.648-101.308 34.236-152.644 93.798-152.644 177.015 0 81.783 53.419 148.343 119.091 148.343z" />
<glyph unicode="&#xe604;" glyph-name="restaurant" horiz-adv-x="564" d="M91.375 604.877v-587.913c0-15.326 5.564-28.57 16.759-39.799 11.025-11.025 24.064-16.555 39.083-16.725 14.985 0.171 28.023 5.7 39.083 16.725 11.196 11.196 16.794 24.439 16.794 39.799v587.913c16.794 5.871 79.735 61.986 79.735 80.009v236.442c0 7.646-2.799 14.268-8.397 19.9-5.632 5.564-12.254 8.363-19.9 8.363-7.68 0-14.302-2.833-19.866-8.397-5.632-5.598-8.397-12.22-8.397-19.866v-183.876c0-7.646-2.833-14.268-8.397-19.9-5.598-5.598-12.254-8.363-19.9-8.363s-14.302 2.765-19.9 8.363c-5.564 5.632-8.397 12.254-8.397 19.9v183.876c0 7.646-2.799 14.268-8.397 19.9-5.564 5.564-12.22 8.363-19.866 8.363s-14.302-2.799-19.866-8.397c-5.632-5.598-8.431-12.22-8.431-19.866v-183.876c0-7.646-2.833-14.268-8.397-19.9-5.598-5.598-12.22-8.363-19.9-8.363s-14.302 2.765-19.9 8.363-8.397 12.254-8.397 19.9v183.876c0 7.646-2.765 14.268-8.397 19.9-5.598 5.564-12.186 8.363-19.866 8.363s-14.302-2.799-19.866-8.397c-5.598-5.598-8.397-12.22-8.397-19.866v-236.442c0-17.988 74.547-74.138 91.375-80.009zM147.934-39.595c-0.273 0-0.512 0.068-0.717 0.068s-0.478-0.068-0.751-0.068h1.468zM509.133-51.2c-0.273 0-0.512 0.068-0.717 0.068-0.273 0-0.512-0.068-0.717-0.068h1.434zM388.335 463.667h64.205v-458.308c0-15.326 5.598-28.57 16.794-39.799 10.991-10.991 24.064-16.555 39.083-16.725 14.985 0.171 28.023 5.7 39.049 16.725 11.196 11.196 16.828 24.439 16.828 39.799v939.145c0 7.646-2.833 14.268-8.397 19.9-5.632 5.564-12.288 8.397-19.934 8.397h-20.343c-38.912 0-72.158-13.858-99.908-41.54-27.682-27.716-41.54-60.996-41.54-99.874v-353.553c0-3.823 1.399-7.134 4.198-9.933s6.178-4.233 9.967-4.233z" />
<glyph unicode="&#xe605;" glyph-name="sauna" horiz-adv-x="963" d="M309.111 763.767c-20.241-13.346-38.741-25.6-53.931-38.775-14.336-19.183-23.45-41.404-23.45-70.588 0-59.494 22.084-94.276 41.199-113.289-0.512-6.178-1.092-12.39-1.092-18.534 0-122.436 95.881-221.935 213.572-221.935 117.828 0 213.572 99.499 213.572 221.935 0 18.671-2.321 36.864-6.588 54.443 13.722 51.166 24.508 124.279 3.789 208.862l-10.069-2.594c-1.331-0.444-78.097-20.89-162.475-63.966 39.356-38.093 92.843-91.17 138.923-177.459 0.614-6.383 1.092-12.8 1.092-19.251 0-102.946-80.077-186.743-178.278-186.743-98.338 0-178.278 83.797-178.278 186.743 0 6.042 0.512 11.947 1.092 17.92 80.213 185.924 382.396 264.397 382.396 264.397s14.848 172.749-199.817 167.799c-171.349-3.959-201.182-140.186-206.336-195.038 3.686 2.321 7.134 4.71 10.684 7.066 37.137 24.61 118.579 83.183 115.951 79.838 0.034 0-64.922-76.186-101.956-100.83zM723.968 246.238c-88.269-164.523-210.739-252.791-296.448-297.438h303.343c19.593 0 35.294 15.94 35.294 35.328v182.784c0 33.075-16.794 62.020-42.189 79.326zM202.923 166.912v-182.784c0-19.524 15.838-35.328 35.294-35.328h91.614c49.903 16.555 238.217 91.58 358.468 311.774-5.734 1.229-11.674 1.843-17.681 1.843h-372.19c-52.736 0-95.505-42.803-95.505-95.505zM787.866 505.31c7.612 6.11 8.841 17.101 2.833 24.678-6.144 7.646-17.34 8.875-24.883 2.799-18.5-14.746-42.94-55.945-2.833-106.428 30.037-37.751-16.657-93.218-17.169-93.696-6.383-7.373-5.495-18.5 1.707-24.883 3.482-2.935 7.509-4.267 11.571-4.267 4.915 0 10.035 2.082 13.483 6.007 2.697 3.311 66.321 78.063 18.159 138.82-26.897 33.758-7.168 53.316-2.867 56.969zM942.319 505.31c7.646 6.11 8.704 17.101 2.697 24.678-6.007 7.646-17.271 8.875-24.781 2.799-18.5-14.746-42.906-55.945-2.97-106.428 30.208-37.751-16.657-93.218-17.135-93.696-6.281-7.373-5.53-18.5 1.843-24.883 3.311-2.935 7.475-4.267 11.537-4.267 5.018 0 9.899 2.082 13.517 6.007 2.526 3.311 66.321 78.063 17.988 138.82-26.726 33.758-6.861 53.316-2.697 56.969zM190.566 309.623c3.413-4.062 8.431-6.144 13.346-6.144 4.062 0 8.226 1.468 11.674 4.267 7.236 6.383 7.953 17.545 1.604 25.020-0.41 0.478-47.104 55.808-17.203 93.594 40.141 50.483 15.838 91.716-2.662 106.496-7.748 6.007-18.807 4.779-24.883-2.833-6.007-7.578-4.779-18.603 2.697-24.713 4.301-3.652 24.030-23.245-2.697-56.969-48.196-60.791 15.292-135.543 18.125-138.718zM36.113 309.623c3.55-4.062 8.431-6.144 13.346-6.144 4.062 0 8.329 1.468 11.674 4.267 7.339 6.383 7.919 17.545 1.707 25.020-0.375 0.478-47.206 55.808-17.169 93.594 40.073 50.483 15.667 91.716-2.799 106.496-7.646 6.007-18.807 4.779-24.815-2.833-6.007-7.578-4.881-18.603 2.594-24.713 4.267-3.652 24.132-23.245-2.594-56.969-48.299-60.791 15.326-135.543 18.057-138.718z" />
<glyph unicode="&#xe606;" glyph-name="security" horiz-adv-x="1077" d="M76.322-9.489c0-22.938 18.466-41.711 41.574-41.711h74.991c23.245 0 41.711 18.773 41.711 41.711v62.225h-158.276v-62.225zM746.257-9.489c0-22.938 18.637-41.711 41.882-41.711h74.991c22.665 0 41.609 18.773 41.609 41.711v62.225h-158.481v-62.225zM130.662 215.689h721.442v629.794h-721.442v-629.794zM235.076 542.413c0 16.486 13.073 29.867 29.457 29.867h32.87c2.935 14.029 7.578 27.546 13.517 40.209 31.095 68.437 100.284 116.122 180.224 116.122 109.466 0 198.417-88.644 198.417-198.042s-88.951-198.315-198.417-198.315c-79.974 0-149.129 47.65-180.224 116.395-5.973 12.8-10.615 26.18-13.517 39.97h-32.87c-16.384 0-29.457 13.585-29.457 30.071v23.723zM491.179 417.143c62.805 0 113.22 50.79 113.22 113.562 0 62.498-50.449 113.22-113.22 113.22-62.362 0-113.22-50.722-113.22-113.22-0.034-62.771 50.825-113.562 113.22-113.562zM1035.844 678.605c23.108 0 41.574 18.91 41.574 41.882v74.991c0 22.972-18.466 41.745-41.574 41.745h-53.487v89.088c0 25.6-21.060 46.49-46.66 46.49h-888.9c-25.737 0-46.797-20.89-46.797-46.49v-791.177c0-25.6 21.060-46.353 46.797-46.353h888.866c25.6 0 46.66 20.787 46.66 46.353v88.815h53.487c23.108 0 41.574 18.739 41.574 42.018v74.854c0 23.108-18.466 41.745-41.574 41.745h-53.487v296.038h53.521zM891.631 845.483v-633.003c0-19.763-15.974-35.908-35.294-35.908h-730.010c-19.797 0-35.772 16.145-35.772 35.908v636.177c0 19.797 15.974 35.703 35.772 35.703h730.010c19.319 0 35.294-15.906 35.294-35.703v-3.174z" />
<glyph unicode="&#xe607;" glyph-name="ski" horiz-adv-x="402" d="M0 357.444h13.449l7.543 42.701h14.268v12.732h-25.054zM91.068 972.8c-24.747 0-52.804-12.049-52.804-77.79v-878.421c0-50.893 28.058-67.789 52.804-67.789 24.542 0 53.214 16.896 53.214 67.789v878.421c0 65.741-28.672 77.79-53.214 77.79zM104.516 292.557h-26.863l-15.428 45.295v69.12l11.947 18.022h33.314l12.527-18.022v-69.12l-15.497-45.295zM311.296 972.8c-24.542 0-52.838-12.049-52.838-77.79v-878.421c0-50.893 28.297-67.789 52.838-67.789s52.907 16.896 52.907 67.789v878.421c0 65.741-28.365 77.79-52.907 77.79zM340.275 337.852l-15.531-45.295h-26.795l-15.599 45.295v69.12l12.322 18.022h33.007l12.595-18.022v-69.12zM146.91 412.877v-12.732h14.302l7.578-42.701h13.414l-10.206 55.433zM392.533 412.877h-25.395v-12.732h14.336l7.817-42.701h13.141zM220.16 357.444h13.483l7.612 42.701h14.336v12.732h-25.19z" />
<glyph unicode="&#xe608;" glyph-name="star" horiz-adv-x="1077" d="M538.317 798.379l104.994-246.989 267.401-23.552-202.377-176.265 9.216-39.902 50.927-221.73-230.127 138.103-230.161-138.103 50.961 221.696 9.216 39.902-202.445 176.264 267.401 23.552 16.077 37.683 88.917 209.34zM538.317 972.8l-151.859-357.001-386.458-34.065 292.625-254.771-87.006-378.163 332.698 199.646 332.663-199.612-86.938 378.129 292.523 254.771-386.389 34.065-151.859 357.001z" />
<glyph unicode="&#xe609;" glyph-name="starfull" horiz-adv-x="1077" d="M784.077 326.963l86.938-378.129-332.698 199.612-332.663-199.646 86.903 378.163-292.557 254.771 386.458 34.065 151.859 357.001 151.791-357.001 386.492-34.065-292.523-254.771z" />
<glyph unicode="&#xe60a;" glyph-name="wine" horiz-adv-x="628" d="M505.993 12.8h-160.017v323.072c69.871 7.1 135.339 35.806 186.47 85.197 120.593 116.599 128.717 414.993 14.746 541.184l-9.557 10.547h-447.317l-9.523-10.581c-114.005-126.191-105.813-424.619 14.848-541.184 51.063-49.391 116.497-78.063 186.368-85.197v-323.072h-160.017c-17.681 0-32.017-14.302-32.017-32.017s14.37-31.949 32.017-31.949h384.034c17.715 0 32.017 14.302 32.017 32.017s-14.336 31.983-32.051 31.983zM119.535 908.8h388.949c82.091-107.52 72.806-351.607-20.548-441.719-93.662-90.522-254.054-90.658-347.785-0.034-93.355 90.146-102.741 334.234-20.617 441.754zM162.406 490.052c-46.626 45.056-69.222 137.66-66.628 226.748h436.497c2.594-89.122-19.934-181.692-66.56-226.714-77.449-74.923-225.86-74.923-303.309-0.034z" />
<glyph unicode="&#xe60b;" glyph-name="hexafacebook" horiz-adv-x="887" d="M512 952.371c271.002 0 491.52-220.518 491.52-491.571 0-271.002-220.518-491.52-491.52-491.52s-491.52 220.518-491.52 491.52c-0.051 271.053 220.467 491.571 491.52 491.571zM512 972.8c-282.726 0-512-229.274-512-512 0-282.778 229.274-512 512-512 282.829 0 512 229.222 512 512s-229.222 512-512 512v0zM625.562 524.646h-81.766v39.731c0 0-4.608 37.837 22.016 37.837 29.85 0 53.658 0 53.658 0v81.613h-91.546c0 0-76.698 0.358-76.698-76.698 0-16.538-0.051-46.694-0.205-82.637h-52.582v-65.741h52.48c-0.358-104.448-0.717-220.928-0.717-220.928h93.491v220.928h61.85l19.917 65.741 0.102 0.154z" />
<glyph unicode="&#xe60c;" glyph-name="hexainstagram" horiz-adv-x="887" d="M512 952.371c271.002 0 491.52-220.518 491.52-491.571 0-271.002-220.518-491.52-491.52-491.52s-491.52 220.518-491.52 491.52c-0.051 271.053 220.467 491.571 491.52 491.571zM512 972.8c-282.726 0-512-229.274-512-512 0-282.778 229.274-512 512-512 282.829 0 512 229.222 512 512s-229.222 512-512 512v0zM711.629 680.243h-399.258c-10.906 0-19.814-8.858-19.814-19.763v-399.309c0-10.906 8.909-19.814 19.814-19.814h399.309c10.906 0 19.814 8.909 19.814 19.814v399.309c-0.154 10.906-8.96 19.763-19.866 19.763zM511.949 537.395c42.394 0 76.595-34.253 76.595-76.595 0-42.291-34.202-76.595-76.595-76.595-42.24 0-76.544 34.304-76.544 76.595 0 42.342 34.304 76.595 76.544 76.595zM676.557 296.294h-329.165v192h36.096c-1.894-8.909-2.918-18.022-2.918-27.443 0-72.448 58.931-131.43 131.379-131.43 72.499 0 131.482 58.982 131.482 131.43 0 9.421-1.075 18.534-3.021 27.443h36.096v-192h0.051zM676.557 543.13h-82.278v82.278h82.278v-82.278z" />
<glyph unicode="&#xe60d;" glyph-name="hexatwitter" horiz-adv-x="887" d="M816.742 624.282c-19.456-8.602-40.243-14.49-62.157-17.101 22.374 13.414 39.578 34.611 47.616 59.853-20.941-12.39-43.981-21.402-68.762-26.266-19.763 21.094-47.872 34.202-78.899 34.202-59.75 0-108.186-48.435-108.186-108.186 0-8.448 0.973-16.691 2.765-24.576-89.856 4.506-169.574 47.616-222.925 113.050-9.318-15.974-14.694-34.458-14.694-54.374 0-37.53 19.149-70.656 48.128-90.061-17.664 0.614-34.355 5.478-48.998 13.568v-1.331c0-52.378 37.274-96.051 86.784-106.138-9.062-2.406-18.637-3.789-28.518-3.789-6.963 0-13.722 0.768-20.378 2.099 13.824-43.008 53.709-74.342 101.069-75.162-36.966-28.979-83.661-46.285-134.349-46.285-8.806 0-17.408 0.512-25.805 1.485 47.923-30.822 104.704-48.691 165.837-48.691 198.912 0 307.814 164.864 307.814 307.814l-0.41 13.978c21.248 15.155 39.578 34.253 54.067 55.91v0zM512 952.371c271.002 0 491.52-220.518 491.52-491.571 0-271.002-220.518-491.52-491.52-491.52s-491.52 220.518-491.52 491.52c-0.051 271.053 220.467 491.571 491.52 491.571zM512 972.8c-282.726 0-512-229.274-512-512 0-282.778 229.274-512 512-512 282.829 0 512 229.222 512 512s-229.222 512-512 512v0z" />
<glyph unicode="&#xe60e;" glyph-name="hexayoutube" horiz-adv-x="887" d="M638.822 494.746h-253.542c-35.43 0-64.051-28.672-64.051-64.102v-123.699c0-35.379 28.621-64.102 64.051-64.102h253.44c35.379 0 64.102 28.723 64.102 64.102v123.648c0 35.482-28.621 64.154-64 64.154zM434.227 427.52h-26.419v-133.683h-22.938v133.683h-26.47v26.47h75.827v-26.47zM505.907 293.786h-20.992v11.981c-4.403-10.189-10.906-15.206-19.405-15.206-13.773 0-20.634 9.677-20.634 28.979v94.515h20.685v-78.592c0-6.4 0.41-11.008 1.126-13.824 1.331-4.813 3.994-7.219 7.987-7.219 4.301 0 7.168 2.509 8.55 7.782 0.768 2.918 1.229 7.885 1.229 14.899v76.8h21.555v-120.218h-0.102zM585.165 313.293c-3.482-15.104-10.701-22.682-21.658-22.682-9.062 0-15.36 5.325-18.79 15.821v-12.493h-20.378v160.102h21.402v-50.022c3.584 8.909 9.626 13.312 18.176 13.312 10.854 0 18.022-7.782 21.35-23.296 1.741-7.782 2.56-21.402 2.56-40.704 0-18.688-0.922-32-2.816-40.090l0.154 0.051zM665.6 350.106h-42.086c-0.102-1.28-0.205-3.891-0.205-7.68 0-8.909 0.41-15.309 1.075-19.098 1.485-7.782 4.813-11.776 9.626-11.776 7.219 0 10.701 7.885 10.701 23.706h20.275c0-0.614 0-1.382 0-2.406 0-0.922 0.102-1.69 0.102-2.304 0-13.875-2.509-24.013-7.68-30.31-5.018-6.298-13.005-9.523-23.808-9.523-11.11 0-19.098 3.891-24.013 11.622-3.942 6.093-6.451 14.899-7.526 26.675-0.512 5.018-0.717 14.797-0.717 28.979 0 11.418 0.205 19.507 0.717 24.422 0.922 9.779 3.123 17.306 6.349 22.426 5.376 8.397 13.875 12.595 25.805 12.595 11.418 0 19.814-4.506 24.986-13.619 4.301-7.424 6.4-22.221 6.4-44.493v-9.216zM556.339 393.882c-5.786 0-9.472-6.195-10.803-18.483-0.205-2.509-0.41-11.315-0.41-26.522 0-11.776 0.307-18.995 0.717-22.016 1.382-9.011 4.966-13.414 10.496-13.414 5.222 0 8.397 5.478 9.472 16.486 0.307 2.202 0.41 10.086 0.41 23.603 0 13.875-0.102 21.811-0.358 23.808-1.126 11.059-4.301 16.538-9.523 16.538v0zM633.6 395.981c-3.686 0-6.4-1.587-7.987-4.813-1.997-3.994-2.816-9.626-2.406-16.896l0.102-1.69c0.102-1.075 0.102-2.304 0.102-3.379h20.787v5.018c0 6.912-0.512 11.878-1.485 14.797-1.485 4.71-4.506 7.014-9.011 7.014h-0.102zM437.146 618.189l-18.739 60.621h-25.6l32.512-92.774v-68.301h23.245v68.25l31.949 92.774h-24.832l-18.534-60.57zM521.165 641.946c-13.926 0-23.245-6.502-27.955-19.456-3.174-8.704-4.813-23.501-4.813-44.339s1.638-35.584 4.813-44.134c4.71-13.005 14.080-19.456 27.955-19.456s23.296 6.4 28.058 19.354c3.174 8.653 4.762 23.398 4.762 44.288s-1.587 35.686-4.762 44.339c-4.813 12.954-14.182 19.456-28.058 19.405v0zM531.866 572.518c0-13.107-0.154-20.582-0.41-22.682-1.331-9.267-4.813-13.875-10.445-13.875s-9.062 5.325-10.24 16.179c-0.154 1.331-0.256 9.421-0.256 24.422v11.162c0 11.008 0.256 17.766 0.717 20.378 1.331 8.090 4.659 12.032 9.984 12.032 5.478 0 8.96-4.608 10.24-13.722 0.358-2.509 0.512-9.882 0.512-22.118l-0.102-11.776zM609.587 561.408c0-7.014-0.41-11.981-1.178-15.002-1.382-5.274-4.352-7.834-8.704-7.834-3.994 0-6.656 2.406-7.987 7.219-0.717 2.765-1.075 7.424-1.075 13.926v79.002h-20.787v-95.027c0-19.456 6.912-29.184 20.787-29.184 8.602 0 15.002 5.069 19.558 15.258v-12.032h21.094v120.986h-21.606l-0.102-77.312zM512 952.371c271.002 0 491.52-220.518 491.52-491.571 0-271.002-220.518-491.52-491.52-491.52s-491.52 220.518-491.52 491.52c-0.051 271.053 220.467 491.571 491.52 491.571zM512 972.8c-282.726 0-512-229.274-512-512 0-282.778 229.274-512 512-512 282.829 0 512 229.222 512 512s-229.222 512-512 512v0z" />
<glyph unicode="&#xe60f;" glyph-name="hexaleft" horiz-adv-x="887" d="M512 952.371c271.002 0 491.52-220.518 491.52-491.571 0-271.002-220.518-491.52-491.52-491.52s-491.52 220.518-491.52 491.52c-0.051 271.053 220.467 491.571 491.52 491.571zM512 972.8c-282.726 0-512-229.274-512-512 0-282.778 229.274-512 512-512 282.829 0 512 229.222 512 512s-229.222 512-512 512v0zM608.768 280.371l-206.643 179.302 208.947 181.555 10.803-12.493-194.56-169.062 192.256-166.81z" />
<glyph unicode="&#xe610;" glyph-name="hexaright" horiz-adv-x="887" d="M415.283 280.371l-10.803 12.493 192.205 166.81-194.509 169.062 10.803 12.493 208.845-181.555zM512 952.371c271.002 0 491.52-220.518 491.52-491.571 0-271.002-220.518-491.52-491.52-491.52s-491.52 220.518-491.52 491.52c-0.051 271.053 220.467 491.571 491.52 491.571zM512 972.8c-282.726 0-512-229.274-512-512 0-282.778 229.274-512 512-512 282.829 0 512 229.222 512 512s-229.222 512-512 512v0z" />
<glyph unicode="&#xe611;" glyph-name="pen" horiz-adv-x="1068" d="M1053.389 862.583l-95.539 95.437c-9.865 9.865-22.869 14.814-35.806 14.814-12.971 0-25.975-4.915-35.84-14.78l-76.39-76.22 167.117-166.844 76.425 76.186c19.831 19.729 19.831 51.746 0.034 71.407zM313.617 386.526l167.151-166.878 460.425 459.571-167.151 166.878zM277.538 350.822l-35.669-202.445 202.82 35.601zM739.601 58.231h-630.204v630.17h444.723l109.602 109.397h-592.998c-38.912 0-70.758-31.812-70.758-70.758v-707.482c0-38.912 31.846-70.724 70.758-70.724h707.55c38.878 0 70.69 31.846 70.69 70.724v505.856l-109.397-109.261 0.034-357.922z" />
<glyph unicode="&#xe612;" glyph-name="play" horiz-adv-x="682" d="M0 972.8v-1024l681.711 512.034z" />
<glyph unicode="&#xe613;" glyph-name="map" horiz-adv-x="683" d="M338.705 972.8c-186.743 0-338.705-151.962-338.705-338.705 0-75.23 48.026-197.837 146.842-374.921 69.871-125.235 138.65-229.683 141.517-234.018l50.347-76.356 50.347 76.322c2.901 4.369 71.68 108.817 141.517 233.984 98.816 177.084 146.876 299.725 146.876 374.955 0 186.778-151.962 338.739-338.739 338.739zM338.705 460.8c-96.939 0-175.548 78.609-175.548 175.582s78.609 175.582 175.582 175.582 175.616-78.609 175.616-175.582-78.677-175.582-175.65-175.582z" />
<glyph unicode="&#xe614;" glyph-name="phone" horiz-adv-x="580" d="M505.344 972.8h-430.865c-41.199 0-74.479-33.451-74.479-74.615v-874.871c0-41.097 33.28-74.513 74.479-74.513h430.831c41.165 0 74.581 33.417 74.581 74.547v874.837c-0.034 41.165-33.314 74.615-74.547 74.615zM183.569 927.471h212.719c5.359 0 9.694-7.987 9.694-17.988 0-9.933-4.335-17.988-9.694-17.988h-212.719c-5.359 0-9.66 8.055-9.66 17.988 0 10.001 4.301 17.988 9.66 17.988zM289.929 22.391c-26.283 0-47.616 21.333-47.616 47.616 0 26.317 21.402 47.548 47.616 47.548s47.582-21.265 47.582-47.548-21.402-47.616-47.582-47.616zM524.015 185.481h-468.139v661.436h468.139v-661.436z" />
</font>
</defs>
</svg>
